1 сезон

3 сезон

iTunes

1

iTunes

MVO

iTunes

13

1 сезон

RePack

30

Deluxe

pack

Лицензия

ВАЖНО

ИГРА 18+

pack

RePack

MK11

RePack

jed

RePack

fifa19

RePack

RDR2

RePack

NEED FOR SPEED™ PAYBACK

4 сезон

9 сезон

Бесстыжие 9 сезон

Все сериалы

все сериалы на PB.wtf

RePack

FAR CRY 5

Anonymous, доброй ночи, мы катастрофически не успеваем собрать деньги на оплату серверов, помогите нам пожалуйста 5,10,15р., для нас важна любая помощь . В качестве благодарности мы отключим Вам всю рекламу на сайте (укажите свой ник в строку Ваше имя)!

×
  
Magnet ссылка

Учитель на замену / Detachment (Тони Кэй) [2011 г., драма, DVD9, Профессиональный (многоголосый) (лицензия)] pb.wtf

Скачать  

11-07-2012 13:31 Учитель на замену Скачать торрент  

Учитель на замену / Detachment

Год выпуска: 2011
Страна: США
Жанр: драма
Перевод: Профессиональный (многоголосый) (Лицензия)
Тип релиза: Лицензия

Режиссер: Тони Кэй
Продюссер: Остин Старк, Бинго Губельман, Бенжи Кон

В ролях: Эдриан Броуди, Кристина Хендрикс, Марша Гэй Харден, Джеймс Каан, Люси Лью, Блайт Даннер, Тим Блейк Нельсон, Уильям Л. Питерсен, Брайан Крэнстон, Сами Гэйл

Описание: У Генри Бартса настоящий талант ладить с учениками. Чтобы избежать каких-либо эмоциональных привязанностей к подопечным, он решил нигде не задерживаться на длительное время. Когда он прибывает на новое место в государственную школу, где учителя абсолютно безразличны к судьбе учеников, то быстро становится образцом для подражания и самым популярным педагогом.

Качество: DVD9
Формат: DVD Video
Видео кодек: MPEG2
Аудио кодек: AC3
Видео: PAL 16:9 (720x576)25,000 кадров/сек7001 Кбит/сек
Аудио#1: Russian (Dolby AC3, 6 ch)48,0 КГц448 Кбит/сек
Аудио#2: English (Dolby AC3, 6 ch)48,0 КГц448 Кбит/сек
Семпл:http://multi-up.com/731443
Title:
Size: 5.86 Gb ( 6 145 152 KBytes ) - DVD-9
Enabled regions: 1, 2, 3, 4, 5, 6, 7, 8

VTS_01 :
Play Length: 00:00:05
Video: PAL 4:3 (720x576) VBR
Subtitles:
English
English

VTS_02 :
Play Length: 00:00:09
Video: PAL 16:9 (720x576) VBR, Auto Letterboxed
Audio:
Not specified (Dolby AC3, 2 ch)

VTS_03 :
Play Length: 00:02:13
Video: PAL 16:9 (720x576) VBR, Auto Letterboxed
Audio:
Not specified (Dolby AC3, 2 ch)
Not specified (Dolby AC3, 2 ch)
Subtitles:
Not specified

VTS_04 :
Play Length: 01:33:39
Video: PAL 16:9 (720x576) VBR, Auto Letterboxed
Audio:
Russian (Dolby AC3, 6 ch)
English (Dolby AC3, 6 ch)
Subtitles:
Russian

VTS_05 :
Play Length: 00:01:34
Video: PAL 16:9 (720x576) VBR, Auto Letterboxed
Audio:
Not specified (Dolby AC3, 2 ch)
Subtitles:
Not specified

VTS_06 :
Play Length: 00:02:21
Video: PAL 16:9 (720x576) VBR, Auto Letterboxed
Audio:
Not specified (Dolby AC3, 2 ch)
Not specified (Dolby AC3, 2 ch)
Not specified (Dolby AC3, 2 ch)
Subtitles:
Not specified

VTS_07 :
Play Length: 00:01:12
Video: PAL 16:9 (720x576) VBR, Auto Letterboxed
Audio:
Not specified (Dolby AC3, 6 ch)
Subtitles:
Not specified

VTS_08 :
Play Length: 00:01:26
Video: PAL 16:9 (720x576) VBR, Auto Letterboxed
Audio:
Not specified (Dolby AC3, 2 ch)
Subtitles:
Not specified

VTS_09 :
Play Length: 00:02:21
Video: PAL 16:9 (720x576) VBR, Auto Letterboxed
Audio:
Not specified (Dolby AC3, 2 ch)
Not specified (Dolby AC3, 2 ch)
Subtitles:
Not specified

VTS_10 :
Play Length: 00:02:08
Video: PAL 16:9 (720x576) VBR, Auto Letterboxed
Audio:
Not specified (Dolby AC3, 2 ch)
Subtitles:
Not specified

VTS_11 :
Play Length: 00:03:33
Video: PAL 16:9 (720x576) VBR, Auto Letterboxed
Полное имя : D:\Скачка\учитель на замену\VIDEO_TS\VIDEO_TS.BUP
Формат : DVD Video
Профиль формата : Menu
Размер файла : 20,0 Кбайт
Режим общего битрейта : Переменный

Видео
Идентификатор : 224 (0xE0)
Формат : MPEG Video
Версия формата : Version 2
Вид битрейта : Переменный
Ширина : 720 пикселей
Высота : 576 пикселей
Соотношение сторон : 16:9
Частота кадров : 25,000 кадров/сек
Стандарт вещания : PAL
Метод сжатия : С потерями

Текст
Формат : RLE
Формат/Информация : Run-length encoding
Битовая глубина : 2 бит

Общее
Полное имя : D:\Скачка\учитель на замену\VIDEO_TS\VIDEO_TS.IFO
Формат : DVD Video
Профиль формата : Menu
Размер файла : 20,0 Кбайт
Режим общего битрейта : Переменный

Видео
Идентификатор : 224 (0xE0)
Формат : MPEG Video
Версия формата : Version 2
Вид битрейта : Переменный
Ширина : 720 пикселей
Высота : 576 пикселей
Соотношение сторон : 16:9
Частота кадров : 25,000 кадров/сек
Стандарт вещания : PAL
Метод сжатия : С потерями

Текст
Формат : RLE
Формат/Информация : Run-length encoding
Битовая глубина : 2 бит

Общее
Полное имя : D:\Скачка\учитель на замену\VIDEO_TS\VTS_01_0.BUP
Формат : DVD Video
Профиль формата : Program
Размер файла : 30,0 Кбайт
Продолжительность : 5 с. 320 мс.
Режим общего битрейта : Переменный
Общий поток : 46,2 Кбит/сек

Видео
Идентификатор : 224 (0xE0)
Формат : MPEG Video
Версия формата : Version 2
Продолжительность : 5 с. 320 мс.
Вид битрейта : Переменный
Ширина : 720 пикселей
Высота : 576 пикселей
Соотношение сторон : 4:3
Частота кадров : 25,000 кадров/сек
Стандарт вещания : PAL
Метод сжатия : С потерями

Аудио #1
Формат : AC-3
Формат/Информация : Audio Coding 3
Продолжительность : 5 с. 320 мс.
Каналы : 6 каналов
Частота : 48,0 КГц
Метод сжатия : С потерями
Язык : English

Аудио #2
Формат : AC-3
Формат/Информация : Audio Coding 3
Продолжительность : 5 с. 320 мс.
Каналы : 6 каналов
Частота : 48,0 КГц
Метод сжатия : С потерями
Язык : English

Аудио #3
Формат : AC-3
Формат/Информация : Audio Coding 3
Продолжительность : 5 с. 320 мс.
Каналы : 6 каналов
Частота : 48,0 КГц
Метод сжатия : С потерями
Язык : English

Аудио #4
Формат : AC-3
Формат/Информация : Audio Coding 3
Продолжительность : 5 с. 320 мс.
Каналы : 6 каналов
Частота : 48,0 КГц
Метод сжатия : С потерями
Язык : English

Аудио #5
Формат : AC-3
Формат/Информация : Audio Coding 3
Продолжительность : 5 с. 320 мс.
Каналы : 6 каналов
Частота : 48,0 КГц
Метод сжатия : С потерями
Язык : English

Аудио #6
Формат : AC-3
Формат/Информация : Audio Coding 3
Продолжительность : 5 с. 320 мс.
Каналы : 6 каналов
Частота : 48,0 КГц
Метод сжатия : С потерями
Язык : English

Аудио #7
Формат : AC-3
Формат/Информация : Audio Coding 3
Продолжительность : 5 с. 320 мс.
Каналы : 6 каналов
Частота : 48,0 КГц
Метод сжатия : С потерями
Язык : English

Аудио #8
Формат : AC-3
Формат/Информация : Audio Coding 3
Продолжительность : 5 с. 320 мс.
Каналы : 6 каналов
Частота : 48,0 КГц
Метод сжатия : С потерями
Язык : English

Текст #1
Идентификатор : 32 (0x20)
Формат : RLE
Формат/Информация : Run-length encoding
Битовая глубина : 2 бит
Язык : English

Текст #2
Идентификатор : 32 (0x20)
Формат : RLE
Формат/Информация : Run-length encoding
Битовая глубина : 2 бит
Язык : English

Текст #3
Формат : RLE
Формат/Информация : Run-length encoding
Битовая глубина : 2 бит

Текст #4
Формат : RLE
Формат/Информация : Run-length encoding
Битовая глубина : 2 бит

Текст #5
Формат : RLE
Формат/Информация : Run-length encoding
Битовая глубина : 2 бит

Текст #6
Формат : RLE
Формат/Информация : Run-length encoding
Битовая глубина : 2 бит

Текст #7
Формат : RLE
Формат/Информация : Run-length encoding
Битовая глубина : 2 бит

Текст #8
Формат : RLE
Формат/Информация : Run-length encoding
Битовая глубина : 2 бит

Текст #9
Формат : RLE
Формат/Информация : Run-length encoding
Битовая глубина : 2 бит

Текст #10
Формат : RLE
Формат/Информация : Run-length encoding
Битовая глубина : 2 бит

Текст #11
Формат : RLE
Формат/Информация : Run-length encoding
Битовая глубина : 2 бит

Текст #12
Формат : RLE
Формат/Информация : Run-length encoding
Битовая глубина : 2 бит

Текст #13
Формат : RLE
Формат/Информация : Run-length encoding
Битовая глубина : 2 бит

Текст #14
Формат : RLE
Формат/Информация : Run-length encoding
Битовая глубина : 2 бит

Текст #15
Формат : RLE
Формат/Информация : Run-length encoding
Битовая глубина : 2 бит

Текст #16
Формат : RLE
Формат/Информация : Run-length encoding
Битовая глубина : 2 бит

Текст #17
Формат : RLE
Формат/Информация : Run-length encoding
Битовая глубина : 2 бит

Текст #18
Формат : RLE
Формат/Информация : Run-length encoding
Битовая глубина : 2 бит

Текст #19
Формат : RLE
Формат/Информация : Run-length encoding
Битовая глубина : 2 бит

Текст #20
Формат : RLE
Формат/Информация : Run-length encoding
Битовая глубина : 2 бит

Текст #21
Формат : RLE
Формат/Информация : Run-length encoding
Битовая глубина : 2 бит

Текст #22
Формат : RLE
Формат/Информация : Run-length encoding
Битовая глубина : 2 бит

Текст #23
Формат : RLE
Формат/Информация : Run-length encoding
Битовая глубина : 2 бит

Текст #24
Формат : RLE
Формат/Информация : Run-length encoding
Битовая глубина : 2 бит

Текст #25
Формат : RLE
Формат/Информация : Run-length encoding
Битовая глубина : 2 бит

Текст #26
Формат : RLE
Формат/Информация : Run-length encoding
Битовая глубина : 2 бит

Текст #27
Формат : RLE
Формат/Информация : Run-length encoding
Битовая глубина : 2 бит

Текст #28
Формат : RLE
Формат/Информация : Run-length encoding
Битовая глубина : 2 бит

Текст #29
Формат : RLE
Формат/Информация : Run-length encoding
Битовая глубина : 2 бит

Текст #30
Формат : RLE
Формат/Информация : Run-length encoding
Битовая глубина : 2 бит

Текст #31
Формат : RLE
Формат/Информация : Run-length encoding
Битовая глубина : 2 бит

Текст #32
Формат : RLE
Формат/Информация : Run-length encoding
Битовая глубина : 2 бит

Меню
Продолжительность : 5 с. 320 мс.
00:00:00.000 : Chapter 1
List (Subtitles 4/3) : 0 / 1
List (Subtitles Wide) : 0 / 0
List (Subtitles Letterbox) : 0 / 0
List (Subtitles Pan&Scan) : 0 / 0

Общее
Полное имя : D:\Скачка\учитель на замену\VIDEO_TS\VTS_01_0.IFO
Формат : DVD Video
Профиль формата : Program
Размер файла : 30,0 Кбайт
Продолжительность : 5 с. 320 мс.
Режим общего битрейта : Переменный
Общий поток : 46,2 Кбит/сек

Видео
Идентификатор : 224 (0xE0)
Формат : MPEG Video
Версия формата : Version 2
Продолжительность : 5 с. 320 мс.
Вид битрейта : Переменный
Ширина : 720 пикселей
Высота : 576 пикселей
Соотношение сторон : 4:3
Частота кадров : 25,000 кадров/сек
Стандарт вещания : PAL
Метод сжатия : С потерями

Аудио #1
Формат : AC-3
Формат/Информация : Audio Coding 3
Продолжительность : 5 с. 320 мс.
Каналы : 6 каналов
Частота : 48,0 КГц
Метод сжатия : С потерями
Язык : English

Аудио #2
Формат : AC-3
Формат/Информация : Audio Coding 3
Продолжительность : 5 с. 320 мс.
Каналы : 6 каналов
Частота : 48,0 КГц
Метод сжатия : С потерями
Язык : English

Аудио #3
Формат : AC-3
Формат/Информация : Audio Coding 3
Продолжительность : 5 с. 320 мс.
Каналы : 6 каналов
Частота : 48,0 КГц
Метод сжатия : С потерями
Язык : English

Аудио #4
Формат : AC-3
Формат/Информация : Audio Coding 3
Продолжительность : 5 с. 320 мс.
Каналы : 6 каналов
Частота : 48,0 КГц
Метод сжатия : С потерями
Язык : English

Аудио #5
Формат : AC-3
Формат/Информация : Audio Coding 3
Продолжительность : 5 с. 320 мс.
Каналы : 6 каналов
Частота : 48,0 КГц
Метод сжатия : С потерями
Язык : English

Аудио #6
Формат : AC-3
Формат/Информация : Audio Coding 3
Продолжительность : 5 с. 320 мс.
Каналы : 6 каналов
Частота : 48,0 КГц
Метод сжатия : С потерями
Язык : English

Аудио #7
Формат : AC-3
Формат/Информация : Audio Coding 3
Продолжительность : 5 с. 320 мс.
Каналы : 6 каналов
Частота : 48,0 КГц
Метод сжатия : С потерями
Язык : English

Аудио #8
Формат : AC-3
Формат/Информация : Audio Coding 3
Продолжительность : 5 с. 320 мс.
Каналы : 6 каналов
Частота : 48,0 КГц
Метод сжатия : С потерями
Язык : English

Текст #1
Идентификатор : 32 (0x20)
Формат : RLE
Формат/Информация : Run-length encoding
Битовая глубина : 2 бит
Язык : English

Текст #2
Идентификатор : 32 (0x20)
Формат : RLE
Формат/Информация : Run-length encoding
Битовая глубина : 2 бит
Язык : English

Текст #3
Формат : RLE
Формат/Информация : Run-length encoding
Битовая глубина : 2 бит

Текст #4
Формат : RLE
Формат/Информация : Run-length encoding
Битовая глубина : 2 бит

Текст #5
Формат : RLE
Формат/Информация : Run-length encoding
Битовая глубина : 2 бит

Текст #6
Формат : RLE
Формат/Информация : Run-length encoding
Битовая глубина : 2 бит

Текст #7
Формат : RLE
Формат/Информация : Run-length encoding
Битовая глубина : 2 бит

Текст #8
Формат : RLE
Формат/Информация : Run-length encoding
Битовая глубина : 2 бит

Текст #9
Формат : RLE
Формат/Информация : Run-length encoding
Битовая глубина : 2 бит

Текст #10
Формат : RLE
Формат/Информация : Run-length encoding
Битовая глубина : 2 бит

Текст #11
Формат : RLE
Формат/Информация : Run-length encoding
Битовая глубина : 2 бит

Текст #12
Формат : RLE
Формат/Информация : Run-length encoding
Битовая глубина : 2 бит

Текст #13
Формат : RLE
Формат/Информация : Run-length encoding
Битовая глубина : 2 бит

Текст #14
Формат : RLE
Формат/Информация : Run-length encoding
Битовая глубина : 2 бит

Текст #15
Формат : RLE
Формат/Информация : Run-length encoding
Битовая глубина : 2 бит

Текст #16
Формат : RLE
Формат/Информация : Run-length encoding
Битовая глубина : 2 бит

Текст #17
Формат : RLE
Формат/Информация : Run-length encoding
Битовая глубина : 2 бит

Текст #18
Формат : RLE
Формат/Информация : Run-length encoding
Битовая глубина : 2 бит

Текст #19
Формат : RLE
Формат/Информация : Run-length encoding
Битовая глубина : 2 бит

Текст #20
Формат : RLE
Формат/Информация : Run-length encoding
Битовая глубина : 2 бит

Текст #21
Формат : RLE
Формат/Информация : Run-length encoding
Битовая глубина : 2 бит

Текст #22
Формат : RLE
Формат/Информация : Run-length encoding
Битовая глубина : 2 бит

Текст #23
Формат : RLE
Формат/Информация : Run-length encoding
Битовая глубина : 2 бит

Текст #24
Формат : RLE
Формат/Информация : Run-length encoding
Битовая глубина : 2 бит

Текст #25
Формат : RLE
Формат/Информация : Run-length encoding
Битовая глубина : 2 бит

Текст #26
Формат : RLE
Формат/Информация : Run-length encoding
Битовая глубина : 2 бит

Текст #27
Формат : RLE
Формат/Информация : Run-length encoding
Битовая глубина : 2 бит

Текст #28
Формат : RLE
Формат/Информация : Run-length encoding
Битовая глубина : 2 бит

Текст #29
Формат : RLE
Формат/Информация : Run-length encoding
Битовая глубина : 2 бит

Текст #30
Формат : RLE
Формат/Информация : Run-length encoding
Битовая глубина : 2 бит

Текст #31
Формат : RLE
Формат/Информация : Run-length encoding
Битовая глубина : 2 бит

Текст #32
Формат : RLE
Формат/Информация : Run-length encoding
Битовая глубина : 2 бит

Меню
Продолжительность : 5 с. 320 мс.
00:00:00.000 : Chapter 1
List (Subtitles 4/3) : 0 / 1
List (Subtitles Wide) : 0 / 0
List (Subtitles Letterbox) : 0 / 0
List (Subtitles Pan&Scan) : 0 / 0

Общее
Полное имя : D:\Скачка\учитель на замену\VIDEO_TS\VTS_01_0.VOB
Формат : MPEG-PS
Размер файла : 134 Мбайт
Продолжительность : 30 с.
Режим общего битрейта : Переменный
Общий поток : 37,4 Мбит/сек

Видео
Идентификатор : 224 (0xE0)
Формат : MPEG Video
Версия формата : Version 2
Профиль формата : Main@Main
Параметр BVOP формата : Да
Параметр матрицы формата : Выборочная
Продолжительность : 30 с.
Вид битрейта : Переменный
Битрейт : 36,5 Мбит/сек
Максимальный битрейт : 8000 Кбит/сек
Ширина : 720 пикселей
Высота : 576 пикселей
Соотношение сторон : 16:9
Частота кадров : 25,000 кадров/сек
Стандарт вещания : PAL
Цветовое пространство : YUV
Субдискретизация насыщенности : 4:2:0
Битовая глубина : 8 бит
Тип развёртки : Чересстрочная
Порядок развёртки : Нижнее поле первое
Метод сжатия : С потерями
Бит/(Пиксели*Кадры) : 3.521
Размер потока : 131 Мбайт (97%)

Аудио
Идентификатор : 189 (0xBD)-128 (0x80)
Формат : AC-3
Формат/Информация : Audio Coding 3
Расширение режима : CM (complete main)
Параметр Endianness формата : Big
Режим смешивания : DVD-Video
Продолжительность : 29 с.
Вид битрейта : Постоянный
Битрейт : 192 Кбит/сек
Каналы : 2 канала
Расположение каналов : Front: L R
Частота : 48,0 КГц
Битовая глубина : 16 бит
Метод сжатия : С потерями
Размер потока : 703 Кбайт (1%)

Текст #1
Идентификатор : 189 (0xBD)-32 (0x20)
Формат : RLE
Формат/Информация : Run-length encoding
Режим смешивания : DVD-Video

Текст #2
Идентификатор : 189 (0xBD)-33 (0x21)
Формат : RLE
Формат/Информация : Run-length encoding
Режим смешивания : DVD-Video

Меню

Общее
Полное имя : D:\Скачка\учитель на замену\VIDEO_TS\VTS_01_1.VOB
Формат : MPEG-PS
Размер файла : 4,25 Мбайт
Продолжительность : 4 с. 920 мс.
Общий поток : 7250 Кбит/сек

Видео
Идентификатор : 224 (0xE0)
Формат : MPEG Video
Версия формата : Version 2
Профиль формата : Main@Main
Параметр BVOP формата : Да
Параметр матрицы формата : По умолчанию
Параметр GOP формата : M=3, N=12
Продолжительность : 4 с. 920 мс.
Битрейт : 7105 Кбит/сек
Максимальный битрейт : 7000 Кбит/сек
Ширина : 720 пикселей
Высота : 576 пикселей
Соотношение сторон : 4:3
Частота кадров : 25,000 кадров/сек
Стандарт вещания : PAL
Цветовое пространство : YUV
Субдискретизация насыщенности : 4:2:0
Битовая глубина : 8 бит
Тип развёртки : Чересстрочная
Порядок развёртки : Нижнее поле первое
Метод сжатия : С потерями
Бит/(Пиксели*Кадры) : 0.685
Размер потока : 4,17 Мбайт (98%)

Текст #1
Идентификатор : 189 (0xBD)-32 (0x20)
Формат : RLE
Формат/Информация : Run-length encoding
Режим смешивания : DVD-Video
Задержка видео : 8 с. 400 мс.

Текст #2
Идентификатор : 189 (0xBD)-33 (0x21)
Формат : RLE
Формат/Информация : Run-length encoding
Режим смешивания : DVD-Video
Задержка видео : 7 с. 920 мс.

Меню

Общее
Полное имя : D:\Скачка\учитель на замену\VIDEO_TS\VTS_02_0.BUP
Формат : DVD Video
Профиль формата : Program
Размер файла : 18,0 Кбайт
Продолжительность : 9 с. 920 мс.
Режим общего битрейта : Переменный
Общий поток : 14,9 Кбит/сек

Видео
Идентификатор : 224 (0xE0)
Формат : MPEG Video
Версия формата : Version 2
Продолжительность : 9 с. 920 мс.
Вид битрейта : Переменный
Ширина : 720 пикселей
Высота : 576 пикселей
Соотношение сторон : 16:9
Частота кадров : 25,000 кадров/сек
Стандарт вещания : PAL
Метод сжатия : С потерями

Аудио
Идентификатор : 128 (0x80)
Формат : AC-3
Формат/Информация : Audio Coding 3
Продолжительность : 9 с. 920 мс.
Каналы : 2 канала
Частота : 48,0 КГц
Метод сжатия : С потерями

Меню
Продолжительность : 9 с. 920 мс.
00:00:00.000 : Chapter 1
List (Audio) : 0

Общее
Полное имя : D:\Скачка\учитель на замену\VIDEO_TS\VTS_02_0.IFO
Формат : DVD Video
Профиль формата : Program
Размер файла : 18,0 Кбайт
Продолжительность : 9 с. 920 мс.
Режим общего битрейта : Переменный
Общий поток : 14,9 Кбит/сек

Видео
Идентификатор : 224 (0xE0)
Формат : MPEG Video
Версия формата : Version 2
Продолжительность : 9 с. 920 мс.
Вид битрейта : Переменный
Ширина : 720 пикселей
Высота : 576 пикселей
Соотношение сторон : 16:9
Частота кадров : 25,000 кадров/сек
Стандарт вещания : PAL
Метод сжатия : С потерями

Аудио
Идентификатор : 128 (0x80)
Формат : AC-3
Формат/Информация : Audio Coding 3
Продолжительность : 9 с. 920 мс.
Каналы : 2 канала
Частота : 48,0 КГц
Метод сжатия : С потерями

Меню
Продолжительность : 9 с. 920 мс.
00:00:00.000 : Chapter 1
List (Audio) : 0

Общее
Полное имя : D:\Скачка\учитель на замену\VIDEO_TS\VTS_02_0.VOB
Формат : MPEG-PS
Размер файла : 154 Кбайт
Продолжительность : 520 мс.
Общий поток : 2426 Кбит/сек

Видео
Идентификатор : 224 (0xE0)
Формат : MPEG Video
Версия формата : Version 2
Профиль формата : Main@Main
Параметр BVOP формата : Да
Параметр матрицы формата : Выборочная
Продолжительность : 520 мс.
Максимальный битрейт : 2000 Кбит/сек
Ширина : 720 пикселей
Высота : 576 пикселей
Соотношение сторон : 4:3
Частота кадров : 25,000 кадров/сек
Стандарт вещания : PAL
Цветовое пространство : YUV
Субдискретизация насыщенности : 4:2:0
Битовая глубина : 8 бит
Тип развёртки : Чересстрочная
Порядок развёртки : Верхнее поле первое
Метод сжатия : С потерями

Текст
Идентификатор : 189 (0xBD)-32 (0x20)
Формат : RLE
Формат/Информация : Run-length encoding
Режим смешивания : DVD-Video
Задержка видео : -80 мс.

Меню

Общее
Полное имя : D:\Скачка\учитель на замену\VIDEO_TS\VTS_02_1.VOB
Формат : MPEG-PS
Размер файла : 4,27 Мбайт
Продолжительность : 9 с. 920 мс.
Режим общего битрейта : Переменный
Общий поток : 3610 Кбит/сек

Видео
Идентификатор : 224 (0xE0)
Формат : MPEG Video
Версия формата : Version 2
Профиль формата : Main@Main
Параметр BVOP формата : Да
Параметр матрицы формата : По умолчанию
Параметр GOP формата : M=3, N=12
Продолжительность : 9 с. 920 мс.
Вид битрейта : Переменный
Битрейт : 3347 Кбит/сек
Максимальный битрейт : 9500 Кбит/сек
Ширина : 720 пикселей
Высота : 576 пикселей
Соотношение сторон : 16:9
Частота кадров : 25,000 кадров/сек
Стандарт вещания : PAL
Цветовое пространство : YUV
Субдискретизация насыщенности : 4:2:0
Битовая глубина : 8 бит
Тип развёртки : Прогрессивная
Метод сжатия : С потерями
Бит/(Пиксели*Кадры) : 0.323
Размер потока : 3,96 Мбайт (93%)

Аудио
Идентификатор : 189 (0xBD)-128 (0x80)
Формат : AC-3
Формат/Информация : Audio Coding 3
Расширение режима : CM (complete main)
Параметр Endianness формата : Big
Режим смешивания : DVD-Video
Продолжительность : 9 с. 888 мс.
Вид битрейта : Постоянный
Битрейт : 192 Кбит/сек
Каналы : 2 канала
Расположение каналов : Front: L R
Частота : 48,0 КГц
Битовая глубина : 16 бит
Метод сжатия : С потерями
Размер потока : 232 Кбайт (5%)

Меню

Общее
Полное имя : D:\Скачка\учитель на замену\VIDEO_TS\VTS_03_0.BUP
Формат : DVD Video
Профиль формата : Program
Размер файла : 18,0 Кбайт
Продолжительность : 2 м. 13 с.
Режим общего битрейта : Переменный
Общий поток : 1106 бит/сек

Видео
Идентификатор : 224 (0xE0)
Формат : MPEG Video
Версия формата : Version 2
Продолжительность : 2 м. 13 с.
Вид битрейта : Переменный
Ширина : 720 пикселей
Высота : 576 пикселей
Соотношение сторон : 16:9
Частота кадров : 25,000 кадров/сек
Стандарт вещания : PAL
Метод сжатия : С потерями

Аудио #1
Идентификатор : 128 (0x80)
Формат : AC-3
Формат/Информация : Audio Coding 3
Продолжительность : 2 м. 13 с.
Каналы : 2 канала
Частота : 48,0 КГц
Метод сжатия : С потерями

Аудио #2
Идентификатор : 129 (0x81)
Формат : AC-3
Формат/Информация : Audio Coding 3
Продолжительность : 2 м. 13 с.
Каналы : 2 канала
Частота : 48,0 КГц
Метод сжатия : С потерями

Текст
Идентификатор : 32 (0x20)
Формат : RLE
Формат/Информация : Run-length encoding
Битовая глубина : 2 бит

Меню
Продолжительность : 2 м. 13 с.
00:00:00.000 : Chapter 1
List (Audio) : 0 / 1
List (Subtitles 4/3) : 0
List (Subtitles Wide) : 0
List (Subtitles Letterbox) : 0
List (Subtitles Pan&Scan) : 0

Общее
Полное имя : D:\Скачка\учитель на замену\VIDEO_TS\VTS_03_0.IFO
Формат : DVD Video
Профиль формата : Program
Размер файла : 18,0 Кбайт
Продолжительность : 2 м. 13 с.
Режим общего битрейта : Переменный
Общий поток : 1106 бит/сек

Видео
Идентификатор : 224 (0xE0)
Формат : MPEG Video
Версия формата : Version 2
Продолжительность : 2 м. 13 с.
Вид битрейта : Переменный
Ширина : 720 пикселей
Высота : 576 пикселей
Соотношение сторон : 16:9
Частота кадров : 25,000 кадров/сек
Стандарт вещания : PAL
Метод сжатия : С потерями

Аудио #1
Идентификатор : 128 (0x80)
Формат : AC-3
Формат/Информация : Audio Coding 3
Продолжительность : 2 м. 13 с.
Каналы : 2 канала
Частота : 48,0 КГц
Метод сжатия : С потерями

Аудио #2
Идентификатор : 129 (0x81)
Формат : AC-3
Формат/Информация : Audio Coding 3
Продолжительность : 2 м. 13 с.
Каналы : 2 канала
Частота : 48,0 КГц
Метод сжатия : С потерями

Текст
Идентификатор : 32 (0x20)
Формат : RLE
Формат/Информация : Run-length encoding
Битовая глубина : 2 бит

Меню
Продолжительность : 2 м. 13 с.
00:00:00.000 : Chapter 1
List (Audio) : 0 / 1
List (Subtitles 4/3) : 0
List (Subtitles Wide) : 0
List (Subtitles Letterbox) : 0
List (Subtitles Pan&Scan) : 0

Общее
Полное имя : D:\Скачка\учитель на замену\VIDEO_TS\VTS_03_0.VOB
Формат : MPEG-PS
Размер файла : 154 Кбайт
Продолжительность : 520 мс.
Общий поток : 2426 Кбит/сек

Видео
Идентификатор : 224 (0xE0)
Формат : MPEG Video
Версия формата : Version 2
Профиль формата : Main@Main
Параметр BVOP формата : Да
Параметр матрицы формата : Выборочная
Продолжительность : 520 мс.
Максимальный битрейт : 2000 Кбит/сек
Ширина : 720 пикселей
Высота : 576 пикселей
Соотношение сторон : 4:3
Частота кадров : 25,000 кадров/сек
Стандарт вещания : PAL
Цветовое пространство : YUV
Субдискретизация насыщенности : 4:2:0
Битовая глубина : 8 бит
Тип развёртки : Чересстрочная
Порядок развёртки : Верхнее поле первое
Метод сжатия : С потерями

Текст
Идентификатор : 189 (0xBD)-32 (0x20)
Формат : RLE
Формат/Информация : Run-length encoding
Режим смешивания : DVD-Video
Задержка видео : -80 мс.

Меню

Общее
Полное имя : D:\Скачка\учитель на замену\VIDEO_TS\VTS_03_1.VOB
Формат : MPEG-PS
Размер файла : 72,6 Мбайт
Продолжительность : 2 м. 13 с.
Режим общего битрейта : Переменный
Общий поток : 4569 Кбит/сек

Видео
Идентификатор : 224 (0xE0)
Формат : MPEG Video
Версия формата : Version 2
Профиль формата : Main@Main
Параметр BVOP формата : Нет
Параметр матрицы формата : По умолчанию
Продолжительность : 2 м. 13 с.
Вид битрейта : Переменный
Битрейт : 4094 Кбит/сек
Максимальный битрейт : 9000 Кбит/сек
Ширина : 720 пикселей
Высота : 576 пикселей
Соотношение сторон : 16:9
Частота кадров : 25,000 кадров/сек
Стандарт вещания : PAL
Цветовое пространство : YUV
Субдискретизация насыщенности : 4:2:0
Битовая глубина : 8 бит
Тип развёртки : Прогрессивная
Метод сжатия : С потерями
Бит/(Пиксели*Кадры) : 0.395
Размер потока : 65,1 Мбайт (90%)

Аудио #1
Идентификатор : 189 (0xBD)-128 (0x80)
Формат : AC-3
Формат/Информация : Audio Coding 3
Расширение режима : CM (complete main)
Параметр Endianness формата : Big
Режим смешивания : DVD-Video
Продолжительность : 2 м. 13 с.
Вид битрейта : Постоянный
Битрейт : 192 Кбит/сек
Каналы : 2 канала
Расположение каналов : Front: L R
Частота : 48,0 КГц
Битовая глубина : 16 бит
Метод сжатия : С потерями
Размер потока : 3,05 Мбайт (4%)

Аудио #2
Идентификатор : 189 (0xBD)-129 (0x81)
Формат : AC-3
Формат/Информация : Audio Coding 3
Расширение режима : CM (complete main)
Параметр Endianness формата : Big
Режим смешивания : DVD-Video
Продолжительность : 2 м. 13 с.
Вид битрейта : Постоянный
Битрейт : 192 Кбит/сек
Каналы : 2 канала
Расположение каналов : Front: L R
Частота : 48,0 КГц
Битовая глубина : 16 бит
Метод сжатия : С потерями
Размер потока : 3,05 Мбайт (4%)

Текст
Идентификатор : 189 (0xBD)-32 (0x20)
Формат : RLE
Формат/Информация : Run-length encoding
Режим смешивания : DVD-Video
Задержка видео : 1 с. 40 мс.

Меню

Общее
Полное имя : D:\Скачка\учитель на замену\VIDEO_TS\VTS_04_0.BUP
Формат : DVD Video
Профиль формата : Program
Размер файла : 68,0 Кбайт
Продолжительность : 1 ч. 33 м.
Режим общего битрейта : Переменный
Общий поток : 99 бит/сек

Видео
Идентификатор : 224 (0xE0)
Формат : MPEG Video
Версия формата : Version 2
Продолжительность : 1 ч. 33 м.
Вид битрейта : Переменный
Ширина : 720 пикселей
Высота : 576 пикселей
Соотношение сторон : 16:9
Частота кадров : 25,000 кадров/сек
Стандарт вещания : PAL
Метод сжатия : С потерями

Аудио #1
Идентификатор : 128 (0x80)
Формат : AC-3
Формат/Информация : Audio Coding 3
Продолжительность : 1 ч. 33 м.
Каналы : 6 каналов
Частота : 48,0 КГц
Метод сжатия : С потерями
Язык : Russian

Аудио #2
Идентификатор : 129 (0x81)
Формат : AC-3
Формат/Информация : Audio Coding 3
Продолжительность : 1 ч. 33 м.
Каналы : 6 каналов
Частота : 48,0 КГц
Метод сжатия : С потерями
Язык : English

Текст
Идентификатор : 32 (0x20)
Формат : RLE
Формат/Информация : Run-length encoding
Битовая глубина : 2 бит
Язык : Russian

Меню
Продолжительность : 1 ч. 33 м.
00:00:00.000 : Chapter 1
00:04:40.240 : Chapter 2
00:11:01.840 : Chapter 3
00:18:20.560 : Chapter 4
00:23:24.400 : Chapter 5
00:30:42.640 : Chapter 6
00:37:44.080 : Chapter 7
00:43:00.400 : Chapter 8
00:50:40.240 : Chapter 9
00:54:15.280 : Chapter 10
00:58:24.880 : Chapter 11
01:04:21.040 : Chapter 12
01:08:50.320 : Chapter 13
01:16:17.200 : Chapter 14
01:19:23.440 : Chapter 15
01:25:41.680 : Chapter 16
List (Audio) : 0 / 1
List (Subtitles 4/3) : 0
List (Subtitles Wide) : 0
List (Subtitles Letterbox) : 0
List (Subtitles Pan&Scan) : 0

Общее
Полное имя : D:\Скачка\учитель на замену\VIDEO_TS\VTS_04_0.IFO
Формат : DVD Video
Профиль формата : Program
Размер файла : 68,0 Кбайт
Продолжительность : 1 ч. 33 м.
Режим общего битрейта : Переменный
Общий поток : 99 бит/сек

Видео
Идентификатор : 224 (0xE0)
Формат : MPEG Video
Версия формата : Version 2
Продолжительность : 1 ч. 33 м.
Вид битрейта : Переменный
Ширина : 720 пикселей
Высота : 576 пикселей
Соотношение сторон : 16:9
Частота кадров : 25,000 кадров/сек
Стандарт вещания : PAL
Метод сжатия : С потерями

Аудио #1
Идентификатор : 128 (0x80)
Формат : AC-3
Формат/Информация : Audio Coding 3
Продолжительность : 1 ч. 33 м.
Каналы : 6 каналов
Частота : 48,0 КГц
Метод сжатия : С потерями
Язык : Russian

Аудио #2
Идентификатор : 129 (0x81)
Формат : AC-3
Формат/Информация : Audio Coding 3
Продолжительность : 1 ч. 33 м.
Каналы : 6 каналов
Частота : 48,0 КГц
Метод сжатия : С потерями
Язык : English

Текст
Идентификатор : 32 (0x20)
Формат : RLE
Формат/Информация : Run-length encoding
Битовая глубина : 2 бит
Язык : Russian

Меню
Продолжительность : 1 ч. 33 м.
00:00:00.000 : Chapter 1
00:04:40.240 : Chapter 2
00:11:01.840 : Chapter 3
00:18:20.560 : Chapter 4
00:23:24.400 : Chapter 5
00:30:42.640 : Chapter 6
00:37:44.080 : Chapter 7
00:43:00.400 : Chapter 8
00:50:40.240 : Chapter 9
00:54:15.280 : Chapter 10
00:58:24.880 : Chapter 11
01:04:21.040 : Chapter 12
01:08:50.320 : Chapter 13
01:16:17.200 : Chapter 14
01:19:23.440 : Chapter 15
01:25:41.680 : Chapter 16
List (Audio) : 0 / 1
List (Subtitles 4/3) : 0
List (Subtitles Wide) : 0
List (Subtitles Letterbox) : 0
List (Subtitles Pan&Scan) : 0

Общее
Полное имя : D:\Скачка\учитель на замену\VIDEO_TS\VTS_04_0.VOB
Формат : MPEG-PS
Размер файла : 154 Кбайт
Продолжительность : 520 мс.
Общий поток : 2426 Кбит/сек

Видео
Идентификатор : 224 (0xE0)
Формат : MPEG Video
Версия формата : Version 2
Профиль формата : Main@Main
Параметр BVOP формата : Да
Параметр матрицы формата : Выборочная
Продолжительность : 520 мс.
Максимальный битрейт : 2000 Кбит/сек
Ширина : 720 пикселей
Высота : 576 пикселей
Соотношение сторон : 4:3
Частота кадров : 25,000 кадров/сек
Стандарт вещания : PAL
Цветовое пространство : YUV
Субдискретизация насыщенности : 4:2:0
Битовая глубина : 8 бит
Тип развёртки : Чересстрочная
Порядок развёртки : Верхнее поле первое
Метод сжатия : С потерями

Текст
Идентификатор : 189 (0xBD)-32 (0x20)
Формат : RLE
Формат/Информация : Run-length encoding
Режим смешивания : DVD-Video
Задержка видео : -80 мс.

Меню

Общее
Полное имя : D:\Скачка\учитель на замену\VIDEO_TS\VTS_04_1.VOB
Формат : MPEG-PS
Размер файла : 1024 Мбайт
Продолжительность : 17 м.
Режим общего битрейта : Переменный
Общий поток : 8057 Кбит/сек

Видео
Идентификатор : 224 (0xE0)
Формат : MPEG Video
Версия формата : Version 2
Профиль формата : Main@Main
Параметр BVOP формата : Да
Параметр матрицы формата : По умолчанию
Параметр GOP формата : M=3, N=12
Продолжительность : 17 м.
Вид битрейта : Переменный
Битрейт : 7001 Кбит/сек
Максимальный битрейт : 8000 Кбит/сек
Ширина : 720 пикселей
Высота : 576 пикселей
Соотношение сторон : 16:9
Частота кадров : 25,000 кадров/сек
Стандарт вещания : PAL
Цветовое пространство : YUV
Субдискретизация насыщенности : 4:2:0
Битовая глубина : 8 бит
Тип развёртки : Прогрессивная
Метод сжатия : С потерями
Бит/(Пиксели*Кадры) : 0.675
Размер потока : 890 Мбайт (87%)

Аудио #1
Идентификатор : 189 (0xBD)-128 (0x80)
Формат : AC-3
Формат/Информация : Audio Coding 3
Расширение режима : CM (complete main)
Параметр Endianness формата : Big
Режим смешивания : DVD-Video
Продолжительность : 17 м.
Вид битрейта : Постоянный
Битрейт : 448 Кбит/сек
Каналы : 6 каналов
Расположение каналов : Front: L C R, Side: L R, LFE
Частота : 48,0 КГц
Битовая глубина : 16 бит
Метод сжатия : С потерями
Размер потока : 56,9 Мбайт (6%)

Аудио #2
Идентификатор : 189 (0xBD)-129 (0x81)
Формат : AC-3
Формат/Информация : Audio Coding 3
Расширение режима : CM (complete main)
Параметр Endianness формата : Big
Режим смешивания : DVD-Video
Продолжительность : 17 м.
Вид битрейта : Постоянный
Битрейт : 448 Кбит/сек
Каналы : 6 каналов
Расположение каналов : Front: L C R, Side: L R, LFE
Частота : 48,0 КГц
Битовая глубина : 16 бит
Метод сжатия : С потерями
Размер потока : 56,9 Мбайт (6%)

Текст
Идентификатор : 189 (0xBD)-32 (0x20)
Формат : RLE
Формат/Информация : Run-length encoding
Режим смешивания : DVD-Video

Меню

Общее
Полное имя : D:\Скачка\учитель на замену\VIDEO_TS\VTS_04_2.VOB
Формат : MPEG-PS
Размер файла : 1024 Мбайт
Продолжительность : 17 м.
Режим общего битрейта : Переменный
Общий поток : 8042 Кбит/сек

Видео
Идентификатор : 224 (0xE0)
Формат : MPEG Video
Версия формата : Version 2
Профиль формата : Main@Main
Параметр BVOP формата : Да
Параметр матрицы формата : По умолчанию
Параметр GOP формата : M=3, N=12
Продолжительность : 17 м.
Вид битрейта : Переменный
Битрейт : 6986 Кбит/сек
Максимальный битрейт : 8000 Кбит/сек
Ширина : 720 пикселей
Высота : 576 пикселей
Соотношение сторон : 16:9
Частота кадров : 25,000 кадров/сек
Стандарт вещания : PAL
Цветовое пространство : YUV
Субдискретизация насыщенности : 4:2:0
Битовая глубина : 8 бит
Тип развёртки : Прогрессивная
Метод сжатия : С потерями
Бит/(Пиксели*Кадры) : 0.674
Размер потока : 889 Мбайт (87%)

Аудио #1
Идентификатор : 189 (0xBD)-128 (0x80)
Формат : AC-3
Формат/Информация : Audio Coding 3
Расширение режима : CM (complete main)
Параметр Endianness формата : Big
Режим смешивания : DVD-Video
Продолжительность : 17 м.
Вид битрейта : Постоянный
Битрейт : 448 Кбит/сек
Каналы : 6 каналов
Расположение каналов : Front: L C R, Side: L R, LFE
Частота : 48,0 КГц
Битовая глубина : 16 бит
Метод сжатия : С потерями
Задержка видео : -672 мс.
Размер потока : 57,0 Мбайт (6%)

Аудио #2
Идентификатор : 189 (0xBD)-129 (0x81)
Формат : AC-3
Формат/Информация : Audio Coding 3
Расширение режима : CM (complete main)
Параметр Endianness формата : Big
Режим смешивания : DVD-Video
Продолжительность : 17 м.
Вид битрейта : Постоянный
Битрейт : 448 Кбит/сек
Каналы : 6 каналов
Расположение каналов : Front: L C R, Side: L R, LFE
Частота : 48,0 КГц
Битовая глубина : 16 бит
Метод сжатия : С потерями
Задержка видео : -672 мс.
Размер потока : 57,0 Мбайт (6%)

Текст
Идентификатор : 189 (0xBD)-32 (0x20)
Формат : RLE
Формат/Информация : Run-length encoding
Режим смешивания : DVD-Video
Продолжительность : 17 м.
Задержка видео : 520 мс.

Меню

Общее
Полное имя : D:\Скачка\учитель на замену\VIDEO_TS\VTS_04_3.VOB
Формат : MPEG-PS
Размер файла : 1024 Мбайт
Продолжительность : 17 м.
Режим общего битрейта : Переменный
Общий поток : 8055 Кбит/сек

Видео
Идентификатор : 224 (0xE0)
Формат : MPEG Video
Версия формата : Version 2
Профиль формата : Main@Main
Параметр BVOP формата : Да
Параметр матрицы формата : По умолчанию
Параметр GOP формата : M=3, N=12
Продолжительность : 17 м.
Вид битрейта : Переменный
Битрейт : 6999 Кбит/сек
Максимальный битрейт : 8000 Кбит/сек
Ширина : 720 пикселей
Высота : 576 пикселей
Соотношение сторон : 16:9
Частота кадров : 25,000 кадров/сек
Стандарт вещания : PAL
Цветовое пространство : YUV
Субдискретизация насыщенности : 4:2:0
Битовая глубина : 8 бит
Тип развёртки : Прогрессивная
Метод сжатия : С потерями
Бит/(Пиксели*Кадры) : 0.675
Размер потока : 890 Мбайт (87%)

Аудио #1
Идентификатор : 189 (0xBD)-128 (0x80)
Формат : AC-3
Формат/Информация : Audio Coding 3
Расширение режима : CM (complete main)
Параметр Endianness формата : Big
Режим смешивания : DVD-Video
Продолжительность : 17 м.
Вид битрейта : Постоянный
Битрейт : 448 Кбит/сек
Каналы : 6 каналов
Расположение каналов : Front: L C R, Side: L R, LFE
Частота : 48,0 КГц
Битовая глубина : 16 бит
Метод сжатия : С потерями
Задержка видео : -416 мс.
Размер потока : 57,0 Мбайт (6%)

Аудио #2
Идентификатор : 189 (0xBD)-129 (0x81)
Формат : AC-3
Формат/Информация : Audio Coding 3
Расширение режима : CM (complete main)
Параметр Endianness формата : Big
Режим смешивания : DVD-Video
Продолжительность : 17 м.
Вид битрейта : Постоянный
Битрейт : 448 Кбит/сек
Каналы : 6 каналов
Расположение каналов : Front: L C R, Side: L R, LFE
Частота : 48,0 КГц
Битовая глубина : 16 бит
Метод сжатия : С потерями
Задержка видео : -416 мс.
Размер потока : 57,0 Мбайт (6%)

Текст
Идентификатор : 189 (0xBD)-32 (0x20)
Формат : RLE
Формат/Информация : Run-length encoding
Режим смешивания : DVD-Video
Задержка видео : 2 с. 240 мс.

Меню

Общее
Полное имя : D:\Скачка\учитель на замену\VIDEO_TS\VTS_04_4.VOB
Формат : MPEG-PS
Размер файла : 1024 Мбайт
Продолжительность : 17 м.
Режим общего битрейта : Переменный
Общий поток : 8047 Кбит/сек

Видео
Идентификатор : 224 (0xE0)
Формат : MPEG Video
Версия формата : Version 2
Профиль формата : Main@Main
Параметр BVOP формата : Да
Параметр матрицы формата : По умолчанию
Параметр GOP формата : M=3, N=12
Продолжительность : 17 м.
Вид битрейта : Переменный
Битрейт : 6991 Кбит/сек
Максимальный битрейт : 8000 Кбит/сек
Ширина : 720 пикселей
Высота : 576 пикселей
Соотношение сторон : 16:9
Частота кадров : 25,000 кадров/сек
Стандарт вещания : PAL
Цветовое пространство : YUV
Субдискретизация насыщенности : 4:2:0
Битовая глубина : 8 бит
Тип развёртки : Прогрессивная
Метод сжатия : С потерями
Бит/(Пиксели*Кадры) : 0.674
Размер потока : 889 Мбайт (87%)

Аудио #1
Идентификатор : 189 (0xBD)-128 (0x80)
Формат : AC-3
Формат/Информация : Audio Coding 3
Расширение режима : CM (complete main)
Параметр Endianness формата : Big
Режим смешивания : DVD-Video
Продолжительность : 17 м.
Вид битрейта : Постоянный
Битрейт : 448 Кбит/сек
Каналы : 6 каналов
Расположение каналов : Front: L C R, Side: L R, LFE
Частота : 48,0 КГц
Битовая глубина : 16 бит
Метод сжатия : С потерями
Задержка видео : -576 мс.
Размер потока : 57,0 Мбайт (6%)

Аудио #2
Идентификатор : 189 (0xBD)-129 (0x81)
Формат : AC-3
Формат/Информация : Audio Coding 3
Расширение режима : CM (complete main)
Параметр Endianness формата : Big
Режим смешивания : DVD-Video
Продолжительность : 17 м.
Вид битрейта : Постоянный
Битрейт : 448 Кбит/сек
Каналы : 6 каналов
Расположение каналов : Front: L C R, Side: L R, LFE
Частота : 48,0 КГц
Битовая глубина : 16 бит
Метод сжатия : С потерями
Задержка видео : -576 мс.
Размер потока : 57,0 Мбайт (6%)

Текст
Идентификатор : 189 (0xBD)-32 (0x20)
Формат : RLE
Формат/Информация : Run-length encoding
Режим смешивания : DVD-Video

Меню

Общее
Полное имя : D:\Скачка\учитель на замену\VIDEO_TS\VTS_04_5.VOB
Формат : MPEG-PS
Размер файла : 1024 Мбайт
Продолжительность : 17 м.
Режим общего битрейта : Переменный
Общий поток : 8040 Кбит/сек

Видео
Идентификатор : 224 (0xE0)
Формат : MPEG Video
Версия формата : Version 2
Профиль формата : Main@Main
Параметр BVOP формата : Да
Параметр матрицы формата : По умолчанию
Параметр GOP формата : M=3, N=12
Продолжительность : 17 м.
Вид битрейта : Переменный
Битрейт : 6984 Кбит/сек
Максимальный битрейт : 8000 Кбит/сек
Ширина : 720 пикселей
Высота : 576 пикселей
Соотношение сторон : 16:9
Частота кадров : 25,000 кадров/сек
Стандарт вещания : PAL
Цветовое пространство : YUV
Субдискретизация насыщенности : 4:2:0
Битовая глубина : 8 бит
Тип развёртки : Прогрессивная
Метод сжатия : С потерями
Бит/(Пиксели*Кадры) : 0.674
Размер потока : 889 Мбайт (87%)

Аудио #1
Идентификатор : 189 (0xBD)-128 (0x80)
Формат : AC-3
Формат/Информация : Audio Coding 3
Расширение режима : CM (complete main)
Параметр Endianness формата : Big
Режим смешивания : DVD-Video
Продолжительность : 17 м.
Вид битрейта : Постоянный
Битрейт : 448 Кбит/сек
Каналы : 6 каналов
Расположение каналов : Front: L C R, Side: L R, LFE
Частота : 48,0 КГц
Битовая глубина : 16 бит
Метод сжатия : С потерями
Задержка видео : -608 мс.
Размер потока : 57,1 Мбайт (6%)

Аудио #2
Идентификатор : 189 (0xBD)-129 (0x81)
Формат : AC-3
Формат/Информация : Audio Coding 3
Расширение режима : CM (complete main)
Параметр Endianness формата : Big
Режим смешивания : DVD-Video
Продолжительность : 17 м.
Вид битрейта : Постоянный
Битрейт : 448 Кбит/сек
Каналы : 6 каналов
Расположение каналов : Front: L C R, Side: L R, LFE
Частота : 48,0 КГц
Битовая глубина : 16 бит
Метод сжатия : С потерями
Задержка видео : -640 мс.
Размер потока : 57,1 Мбайт (6%)

Текст
Идентификатор : 189 (0xBD)-32 (0x20)
Формат : RLE
Формат/Информация : Run-length encoding
Режим смешивания : DVD-Video
Продолжительность : 17 м.
Задержка видео : 240 мс.

Меню

Общее
Полное имя : D:\Скачка\учитель на замену\VIDEO_TS\VTS_04_6.VOB
Формат : MPEG-PS
Размер файла : 148 Мбайт
Продолжительность : 4 м. 42 с.
Режим общего битрейта : Переменный
Общий поток : 4391 Кбит/сек

Видео
Идентификатор : 224 (0xE0)
Формат : MPEG Video
Версия формата : Version 2
Профиль формата : Main@Main
Параметр BVOP формата : Да
Параметр матрицы формата : По умолчанию
Параметр GOP формата : M=3, N=12
Продолжительность : 4 м. 42 с.
Вид битрейта : Переменный
Битрейт : 3408 Кбит/сек
Максимальный битрейт : 8000 Кбит/сек
Ширина : 720 пикселей
Высота : 576 пикселей
Соотношение сторон : 16:9
Частота кадров : 25,000 кадров/сек
Стандарт вещания : PAL
Цветовое пространство : YUV
Субдискретизация насыщенности : 4:2:0
Битовая глубина : 8 бит
Тип развёртки : Прогрессивная
Метод сжатия : С потерями
Бит/(Пиксели*Кадры) : 0.329
Размер потока : 115 Мбайт (78%)

Аудио #1
Идентификатор : 189 (0xBD)-128 (0x80)
Формат : AC-3
Формат/Информация : Audio Coding 3
Расширение режима : CM (complete main)
Параметр Endianness формата : Big
Режим смешивания : DVD-Video
Продолжительность : 4 м. 42 с.
Вид битрейта : Постоянный
Битрейт : 448 Кбит/сек
Каналы : 6 каналов
Расположение каналов : Front: L C R, Side: L R, LFE
Частота : 48,0 КГц
Битовая глубина : 16 бит
Метод сжатия : С потерями
Задержка видео : -672 мс.
Размер потока : 15,1 Мбайт (10%)

Аудио #2
Идентификатор : 189 (0xBD)-129 (0x81)
Формат : AC-3
Формат/Информация : Audio Coding 3
Расширение режима : CM (complete main)
Параметр Endianness формата : Big
Режим смешивания : DVD-Video
Продолжительность : 4 м. 42 с.
Вид битрейта : Постоянный
Битрейт : 448 Кбит/сек
Каналы : 6 каналов
Расположение каналов : Front: L C R, Side: L R, LFE
Частота : 48,0 КГц
Битовая глубина : 16 бит
Метод сжатия : С потерями
Задержка видео : -672 мс.
Размер потока : 15,1 Мбайт (10%)

Текст
Идентификатор : 189 (0xBD)-32 (0x20)
Формат : RLE
Формат/Информация : Run-length encoding
Режим смешивания : DVD-Video
Задержка видео : 4 с. 80 мс.

Меню

Общее
Полное имя : D:\Скачка\учитель на замену\VIDEO_TS\VTS_05_0.BUP
Формат : DVD Video
Профиль формата : Program
Размер файла : 18,0 Кбайт
Продолжительность : 1 м. 34 с.
Режим общего битрейта : Переменный
Общий поток : 1564 бит/сек

Видео
Идентификатор : 224 (0xE0)
Формат : MPEG Video
Версия формата : Version 2
Продолжительность : 1 м. 34 с.
Вид битрейта : Переменный
Ширина : 720 пикселей
Высота : 576 пикселей
Соотношение сторон : 16:9
Частота кадров : 25,000 кадров/сек
Стандарт вещания : PAL
Метод сжатия : С потерями

Аудио
Идентификатор : 128 (0x80)
Формат : AC-3
Формат/Информация : Audio Coding 3
Продолжительность : 1 м. 34 с.
Каналы : 2 канала
Частота : 48,0 КГц
Метод сжатия : С потерями

Текст
Идентификатор : 32 (0x20)
Формат : RLE
Формат/Информация : Run-length encoding
Битовая глубина : 2 бит

Меню
Продолжительность : 1 м. 34 с.
00:00:00.000 : Chapter 1
List (Audio) : 0
List (Subtitles 4/3) : 0
List (Subtitles Wide) : 0
List (Subtitles Letterbox) : 0
List (Subtitles Pan&Scan) : 0

Общее
Полное имя : D:\Скачка\учитель на замену\VIDEO_TS\VTS_05_0.IFO
Формат : DVD Video
Профиль формата : Program
Размер файла : 18,0 Кбайт
Продолжительность : 1 м. 34 с.
Режим общего битрейта : Переменный
Общий поток : 1564 бит/сек

Видео
Идентификатор : 224 (0xE0)
Формат : MPEG Video
Версия формата : Version 2
Продолжительность : 1 м. 34 с.
Вид битрейта : Переменный
Ширина : 720 пикселей
Высота : 576 пикселей
Соотношение сторон : 16:9
Частота кадров : 25,000 кадров/сек
Стандарт вещания : PAL
Метод сжатия : С потерями

Аудио
Идентификатор : 128 (0x80)
Формат : AC-3
Формат/Информация : Audio Coding 3
Продолжительность : 1 м. 34 с.
Каналы : 2 канала
Частота : 48,0 КГц
Метод сжатия : С потерями

Текст
Идентификатор : 32 (0x20)
Формат : RLE
Формат/Информация : Run-length encoding
Битовая глубина : 2 бит

Меню
Продолжительность : 1 м. 34 с.
00:00:00.000 : Chapter 1
List (Audio) : 0
List (Subtitles 4/3) : 0
List (Subtitles Wide) : 0
List (Subtitles Letterbox) : 0
List (Subtitles Pan&Scan) : 0

Общее
Полное имя : D:\Скачка\учитель на замену\VIDEO_TS\VTS_05_0.VOB
Формат : MPEG-PS
Размер файла : 154 Кбайт
Продолжительность : 520 мс.
Общий поток : 2426 Кбит/сек

Видео
Идентификатор : 224 (0xE0)
Формат : MPEG Video
Версия формата : Version 2
Профиль формата : Main@Main
Параметр BVOP формата : Да
Параметр матрицы формата : Выборочная
Продолжительность : 520 мс.
Максимальный битрейт : 2000 Кбит/сек
Ширина : 720 пикселей
Высота : 576 пикселей
Соотношение сторон : 4:3
Частота кадров : 25,000 кадров/сек
Стандарт вещания : PAL
Цветовое пространство : YUV
Субдискретизация насыщенности : 4:2:0
Битовая глубина : 8 бит
Тип развёртки : Чересстрочная
Порядок развёртки : Верхнее поле первое
Метод сжатия : С потерями

Текст
Идентификатор : 189 (0xBD)-32 (0x20)
Формат : RLE
Формат/Информация : Run-length encoding
Режим смешивания : DVD-Video
Задержка видео : -80 мс.

Меню

Общее
Полное имя : D:\Скачка\учитель на замену\VIDEO_TS\VTS_05_1.VOB
Формат : MPEG-PS
Размер файла : 50,5 Мбайт
Продолжительность : 1 м. 34 с.
Режим общего битрейта : Переменный
Общий поток : 4489 Кбит/сек

Видео
Идентификатор : 224 (0xE0)
Формат : MPEG Video
Версия формата : Version 2
Профиль формата : Main@Main
Параметр BVOP формата : Да
Параметр матрицы формата : По умолчанию
Параметр GOP формата : M=3, N=12
Продолжительность : 1 м. 34 с.
Вид битрейта : Переменный
Битрейт : 4080 Кбит/сек
Максимальный битрейт : 5000 Кбит/сек
Ширина : 720 пикселей
Высота : 576 пикселей
Соотношение сторон : 16:9
Частота кадров : 25,000 кадров/сек
Стандарт вещания : PAL
Цветовое пространство : YUV
Субдискретизация насыщенности : 4:2:0
Битовая глубина : 8 бит
Тип развёртки : Прогрессивная
Метод сжатия : С потерями
Бит/(Пиксели*Кадры) : 0.394
Размер потока : 45,9 Мбайт (91%)

Аудио
Идентификатор : 189 (0xBD)-128 (0x80)
Формат : AC-3
Формат/Информация : Audio Coding 3
Расширение режима : CM (complete main)
Параметр Endianness формата : Big
Режим смешивания : DVD-Video
Продолжительность : 1 м. 34 с.
Вид битрейта : Постоянный
Битрейт : 320 Кбит/сек
Каналы : 2 канала
Расположение каналов : Front: L R
Частота : 48,0 КГц
Битовая глубина : 16 бит
Метод сжатия : С потерями
Размер потока : 3,60 Мбайт (7%)

Текст
Идентификатор : 189 (0xBD)-32 (0x20)
Формат : RLE
Формат/Информация : Run-length encoding
Режим смешивания : DVD-Video
Задержка видео : 760 мс.

Меню

Общее
Полное имя : D:\Скачка\учитель на замену\VIDEO_TS\VTS_06_0.BUP
Формат : DVD Video
Профиль формата : Program
Размер файла : 18,0 Кбайт
Продолжительность : 2 м. 21 с.
Режим общего битрейта : Переменный
Общий поток : 1041 бит/сек

Видео
Идентификатор : 224 (0xE0)
Формат : MPEG Video
Версия формата : Version 2
Продолжительность : 2 м. 21 с.
Вид битрейта : Переменный
Ширина : 720 пикселей
Высота : 576 пикселей
Соотношение сторон : 16:9
Частота кадров : 25,000 кадров/сек
Стандарт вещания : PAL
Метод сжатия : С потерями

Аудио #1
Идентификатор : 128 (0x80)
Формат : AC-3
Формат/Информация : Audio Coding 3
Продолжительность : 2 м. 21 с.
Каналы : 2 канала
Частота : 48,0 КГц
Метод сжатия : С потерями

Аудио #2
Идентификатор : 129 (0x81)
Формат : AC-3
Формат/Информация : Audio Coding 3
Продолжительность : 2 м. 21 с.
Каналы : 2 канала
Частота : 48,0 КГц
Метод сжатия : С потерями

Аудио #3
Идентификатор : 130 (0x82)
Формат : AC-3
Формат/Информация : Audio Coding 3
Продолжительность : 2 м. 21 с.
Каналы : 2 канала
Частота : 48,0 КГц
Метод сжатия : С потерями

Текст
Идентификатор : 32 (0x20)
Формат : RLE
Формат/Информация : Run-length encoding
Битовая глубина : 2 бит

Меню
Продолжительность : 2 м. 21 с.
00:00:00.000 : Chapter 1
List (Audio) : 0 / 1 / 2
List (Subtitles 4/3) : 0
List (Subtitles Wide) : 0
List (Subtitles Letterbox) : 0
List (Subtitles Pan&Scan) : 0

Общее
Полное имя : D:\Скачка\учитель на замену\VIDEO_TS\VTS_06_0.IFO
Формат : DVD Video
Профиль формата : Program
Размер файла : 18,0 Кбайт
Продолжительность : 2 м. 21 с.
Режим общего битрейта : Переменный
Общий поток : 1041 бит/сек

Видео
Идентификатор : 224 (0xE0)
Формат : MPEG Video
Версия формата : Version 2
Продолжительность : 2 м. 21 с.
Вид битрейта : Переменный
Ширина : 720 пикселей
Высота : 576 пикселей
Соотношение сторон : 16:9
Частота кадров : 25,000 кадров/сек
Стандарт вещания : PAL
Метод сжатия : С потерями

Аудио #1
Идентификатор : 128 (0x80)
Формат : AC-3
Формат/Информация : Audio Coding 3
Продолжительность : 2 м. 21 с.
Каналы : 2 канала
Частота : 48,0 КГц
Метод сжатия : С потерями

Аудио #2
Идентификатор : 129 (0x81)
Формат : AC-3
Формат/Информация : Audio Coding 3
Продолжительность : 2 м. 21 с.
Каналы : 2 канала
Частота : 48,0 КГц
Метод сжатия : С потерями

Аудио #3
Идентификатор : 130 (0x82)
Формат : AC-3
Формат/Информация : Audio Coding 3
Продолжительность : 2 м. 21 с.
Каналы : 2 канала
Частота : 48,0 КГц
Метод сжатия : С потерями

Текст
Идентификатор : 32 (0x20)
Формат : RLE
Формат/Информация : Run-length encoding
Битовая глубина : 2 бит

Меню
Продолжительность : 2 м. 21 с.
00:00:00.000 : Chapter 1
List (Audio) : 0 / 1 / 2
List (Subtitles 4/3) : 0
List (Subtitles Wide) : 0
List (Subtitles Letterbox) : 0
List (Subtitles Pan&Scan) : 0

Общее
Полное имя : D:\Скачка\учитель на замену\VIDEO_TS\VTS_06_0.VOB
Формат : MPEG-PS
Размер файла : 154 Кбайт
Продолжительность : 520 мс.
Общий поток : 2426 Кбит/сек

Видео
Идентификатор : 224 (0xE0)
Формат : MPEG Video
Версия формата : Version 2
Профиль формата : Main@Main
Параметр BVOP формата : Да
Параметр матрицы формата : Выборочная
Продолжительность : 520 мс.
Максимальный битрейт : 2000 Кбит/сек
Ширина : 720 пикселей
Высота : 576 пикселей
Соотношение сторон : 4:3
Частота кадров : 25,000 кадров/сек
Стандарт вещания : PAL
Цветовое пространство : YUV
Субдискретизация насыщенности : 4:2:0
Битовая глубина : 8 бит
Тип развёртки : Чересстрочная
Порядок развёртки : Верхнее поле первое
Метод сжатия : С потерями

Текст
Идентификатор : 189 (0xBD)-32 (0x20)
Формат : RLE
Формат/Информация : Run-length encoding
Режим смешивания : DVD-Video
Задержка видео : -80 мс.

Меню

Общее
Полное имя : D:\Скачка\учитель на замену\VIDEO_TS\VTS_06_1.VOB
Формат : MPEG-PS
Размер файла : 112 Мбайт
Продолжительность : 2 м. 21 с.
Режим общего битрейта : Переменный
Общий поток : 6611 Кбит/сек

Видео
Идентификатор : 224 (0xE0)
Формат : MPEG Video
Версия формата : Version 2
Профиль формата : Main@Main
Параметр BVOP формата : Да
Параметр матрицы формата : По умолчанию
Параметр GOP формата : M=3, N=12
Продолжительность : 2 м. 21 с.
Вид битрейта : Переменный
Битрейт : 5904 Кбит/сек
Максимальный битрейт : 8000 Кбит/сек
Ширина : 720 пикселей
Высота : 576 пикселей
Соотношение сторон : 16:9
Частота кадров : 25,000 кадров/сек
Стандарт вещания : PAL
Цветовое пространство : YUV
Субдискретизация насыщенности : 4:2:0
Битовая глубина : 8 бит
Тип развёртки : Прогрессивная
Метод сжатия : С потерями
Бит/(Пиксели*Кадры) : 0.569
Размер потока : 99,7 Мбайт (89%)

Аудио #1
Идентификатор : 189 (0xBD)-128 (0x80)
Формат : AC-3
Формат/Информация : Audio Coding 3
Расширение режима : CM (complete main)
Параметр Endianness формата : Big
Режим смешивания : DVD-Video
Продолжительность : 2 м. 20 с.
Вид битрейта : Постоянный
Битрейт : 192 Кбит/сек
Каналы : 2 канала
Расположение каналов : Front: L R
Частота : 48,0 КГц
Битовая глубина : 16 бит
Метод сжатия : С потерями
Размер потока : 3,23 Мбайт (3%)

Аудио #2
Идентификатор : 189 (0xBD)-129 (0x81)
Формат : AC-3
Формат/Информация : Audio Coding 3
Расширение режима : CM (complete main)
Параметр Endianness формата : Big
Режим смешивания : DVD-Video
Продолжительность : 2 м. 20 с.
Вид битрейта : Постоянный
Битрейт : 192 Кбит/сек
Каналы : 2 канала
Расположение каналов : Front: L R
Частота : 48,0 КГц
Битовая глубина : 16 бит
Метод сжатия : С потерями
Размер потока : 3,23 Мбайт (3%)

Аудио #3
Идентификатор : 189 (0xBD)-130 (0x82)
Формат : AC-3
Формат/Информация : Audio Coding 3
Расширение режима : CM (complete main)
Параметр Endianness формата : Big
Режим смешивания : DVD-Video
Продолжительность : 2 м. 20 с.
Вид битрейта : Постоянный
Битрейт : 192 Кбит/сек
Каналы : 2 канала
Расположение каналов : Front: L R
Частота : 48,0 КГц
Битовая глубина : 16 бит
Метод сжатия : С потерями
Размер потока : 3,23 Мбайт (3%)

Текст
Идентификатор : 189 (0xBD)-32 (0x20)
Формат : RLE
Формат/Информация : Run-length encoding
Режим смешивания : DVD-Video
Задержка видео : 1 с. 480 мс.

Меню

Общее
Полное имя : D:\Скачка\учитель на замену\VIDEO_TS\VTS_07_0.BUP
Формат : DVD Video
Профиль формата : Program
Размер файла : 18,0 Кбайт
Продолжительность : 1 м. 12 с.
Режим общего битрейта : Переменный
Общий поток : 2023 бит/сек

Видео
Идентификатор : 224 (0xE0)
Формат : MPEG Video
Версия формата : Version 2
Продолжительность : 1 м. 12 с.
Вид битрейта : Переменный
Ширина : 720 пикселей
Высота : 576 пикселей
Соотношение сторон : 16:9
Частота кадров : 25,000 кадров/сек
Стандарт вещания : PAL
Метод сжатия : С потерями

Аудио
Идентификатор : 128 (0x80)
Формат : AC-3
Формат/Информация : Audio Coding 3
Продолжительность : 1 м. 12 с.
Каналы : 6 каналов
Частота : 48,0 КГц
Метод сжатия : С потерями

Текст
Идентификатор : 32 (0x20)
Формат : RLE
Формат/Информация : Run-length encoding
Битовая глубина : 2 бит

Меню
Продолжительность : 1 м. 12 с.
00:00:00.000 : Chapter 1
List (Audio) : 0
List (Subtitles 4/3) : 0
List (Subtitles Wide) : 0
List (Subtitles Letterbox) : 0
List (Subtitles Pan&Scan) : 0

Общее
Полное имя : D:\Скачка\учитель на замену\VIDEO_TS\VTS_07_0.IFO
Формат : DVD Video
Профиль формата : Program
Размер файла : 18,0 Кбайт
Продолжительность : 1 м. 12 с.
Режим общего битрейта : Переменный
Общий поток : 2023 бит/сек

Видео
Идентификатор : 224 (0xE0)
Формат : MPEG Video
Версия формата : Version 2
Продолжительность : 1 м. 12 с.
Вид битрейта : Переменный
Ширина : 720 пикселей
Высота : 576 пикселей
Соотношение сторон : 16:9
Частота кадров : 25,000 кадров/сек
Стандарт вещания : PAL
Метод сжатия : С потерями

Аудио
Идентификатор : 128 (0x80)
Формат : AC-3
Формат/Информация : Audio Coding 3
Продолжительность : 1 м. 12 с.
Каналы : 6 каналов
Частота : 48,0 КГц
Метод сжатия : С потерями

Текст
Идентификатор : 32 (0x20)
Формат : RLE
Формат/Информация : Run-length encoding
Битовая глубина : 2 бит

Меню
Продолжительность : 1 м. 12 с.
00:00:00.000 : Chapter 1
List (Audio) : 0
List (Subtitles 4/3) : 0
List (Subtitles Wide) : 0
List (Subtitles Letterbox) : 0
List (Subtitles Pan&Scan) : 0

Общее
Полное имя : D:\Скачка\учитель на замену\VIDEO_TS\VTS_07_0.VOB
Формат : MPEG-PS
Размер файла : 154 Кбайт
Продолжительность : 520 мс.
Общий поток : 2426 Кбит/сек

Видео
Идентификатор : 224 (0xE0)
Формат : MPEG Video
Версия формата : Version 2
Профиль формата : Main@Main
Параметр BVOP формата : Да
Параметр матрицы формата : Выборочная
Продолжительность : 520 мс.
Максимальный битрейт : 2000 Кбит/сек
Ширина : 720 пикселей
Высота : 576 пикселей
Соотношение сторон : 4:3
Частота кадров : 25,000 кадров/сек
Стандарт вещания : PAL
Цветовое пространство : YUV
Субдискретизация насыщенности : 4:2:0
Битовая глубина : 8 бит
Тип развёртки : Чересстрочная
Порядок развёртки : Верхнее поле первое
Метод сжатия : С потерями

Текст
Идентификатор : 189 (0xBD)-32 (0x20)
Формат : RLE
Формат/Информация : Run-length encoding
Режим смешивания : DVD-Video
Задержка видео : -80 мс.

Меню

Общее
Полное имя : D:\Скачка\учитель на замену\VIDEO_TS\VTS_07_1.VOB
Формат : MPEG-PS
Размер файла : 62,6 Мбайт
Продолжительность : 1 м. 12 с.
Режим общего битрейта : Переменный
Общий поток : 7210 Кбит/сек

Видео
Идентификатор : 224 (0xE0)
Формат : MPEG Video
Версия формата : Version 2
Профиль формата : Main@Main
Параметр BVOP формата : Да
Параметр матрицы формата : По умолчанию
Параметр GOP формата : M=3, N=12
Продолжительность : 1 м. 12 с.
Вид битрейта : Переменный
Битрейт : 6618 Кбит/сек
Максимальный битрейт : 8000 Кбит/сек
Ширина : 720 пикселей
Высота : 576 пикселей
Соотношение сторон : 16:9
Частота кадров : 25,000 кадров/сек
Стандарт вещания : PAL
Цветовое пространство : YUV
Субдискретизация насыщенности : 4:2:0
Битовая глубина : 8 бит
Тип развёртки : Прогрессивная
Метод сжатия : С потерями
Бит/(Пиксели*Кадры) : 0.638
Размер потока : 57,5 Мбайт (92%)

Аудио
Идентификатор : 189 (0xBD)-128 (0x80)
Формат : AC-3
Формат/Информация : Audio Coding 3
Расширение режима : CM (complete main)
Параметр Endianness формата : Big
Режим смешивания : DVD-Video
Продолжительность : 1 м. 12 с.
Вид битрейта : Постоянный
Битрейт : 448 Кбит/сек
Каналы : 6 каналов
Расположение каналов : Front: L C R, Side: L R, LFE
Частота : 48,0 КГц
Битовая глубина : 16 бит
Метод сжатия : С потерями
Размер потока : 3,87 Мбайт (6%)

Текст
Идентификатор : 189 (0xBD)-32 (0x20)
Формат : RLE
Формат/Информация : Run-length encoding
Режим смешивания : DVD-Video
Задержка видео : 1 с. 520 мс.

Меню

Общее
Полное имя : D:\Скачка\учитель на замену\VIDEO_TS\VTS_08_0.BUP
Формат : DVD Video
Профиль формата : Program
Размер файла : 18,0 Кбайт
Продолжительность : 1 м. 26 с.
Режим общего битрейта : Переменный
Общий поток : 1698 бит/сек

Видео
Идентификатор : 224 (0xE0)
Формат : MPEG Video
Версия формата : Version 2
Продолжительность : 1 м. 26 с.
Вид битрейта : Переменный
Ширина : 720 пикселей
Высота : 576 пикселей
Соотношение сторон : 16:9
Частота кадров : 25,000 кадров/сек
Стандарт вещания : PAL
Метод сжатия : С потерями

Аудио
Идентификатор : 128 (0x80)
Формат : AC-3
Формат/Информация : Audio Coding 3
Продолжительность : 1 м. 26 с.
Каналы : 2 канала
Частота : 48,0 КГц
Метод сжатия : С потерями

Текст
Идентификатор : 32 (0x20)
Формат : RLE
Формат/Информация : Run-length encoding
Битовая глубина : 2 бит

Меню
Продолжительность : 1 м. 26 с.
00:00:00.000 : Chapter 1
List (Audio) : 0
List (Subtitles 4/3) : 0
List (Subtitles Wide) : 0
List (Subtitles Letterbox) : 0
List (Subtitles Pan&Scan) : 0

Общее
Полное имя : D:\Скачка\учитель на замену\VIDEO_TS\VTS_08_0.IFO
Формат : DVD Video
Профиль формата : Program
Размер файла : 18,0 Кбайт
Продолжительность : 1 м. 26 с.
Режим общего битрейта : Переменный
Общий поток : 1698 бит/сек

Видео
Идентификатор : 224 (0xE0)
Формат : MPEG Video
Версия формата : Version 2
Продолжительность : 1 м. 26 с.
Вид битрейта : Переменный
Ширина : 720 пикселей
Высота : 576 пикселей
Соотношение сторон : 16:9
Частота кадров : 25,000 кадров/сек
Стандарт вещания : PAL
Метод сжатия : С потерями

Аудио
Идентификатор : 128 (0x80)
Формат : AC-3
Формат/Информация : Audio Coding 3
Продолжительность : 1 м. 26 с.
Каналы : 2 канала
Частота : 48,0 КГц
Метод сжатия : С потерями

Текст
Идентификатор : 32 (0x20)
Формат : RLE
Формат/Информация : Run-length encoding
Битовая глубина : 2 бит

Меню
Продолжительность : 1 м. 26 с.
00:00:00.000 : Chapter 1
List (Audio) : 0
List (Subtitles 4/3) : 0
List (Subtitles Wide) : 0
List (Subtitles Letterbox) : 0
List (Subtitles Pan&Scan) : 0

Общее
Полное имя : D:\Скачка\учитель на замену\VIDEO_TS\VTS_08_0.VOB
Формат : MPEG-PS
Размер файла : 154 Кбайт
Продолжительность : 520 мс.
Общий поток : 2426 Кбит/сек

Видео
Идентификатор : 224 (0xE0)
Формат : MPEG Video
Версия формата : Version 2
Профиль формата : Main@Main
Параметр BVOP формата : Да
Параметр матрицы формата : Выборочная
Продолжительность : 520 мс.
Максимальный битрейт : 2000 Кбит/сек
Ширина : 720 пикселей
Высота : 576 пикселей
Соотношение сторон : 4:3
Частота кадров : 25,000 кадров/сек
Стандарт вещания : PAL
Цветовое пространство : YUV
Субдискретизация насыщенности : 4:2:0
Битовая глубина : 8 бит
Тип развёртки : Чересстрочная
Порядок развёртки : Верхнее поле первое
Метод сжатия : С потерями

Текст
Идентификатор : 189 (0xBD)-32 (0x20)
Формат : RLE
Формат/Информация : Run-length encoding
Режим смешивания : DVD-Video
Задержка видео : -80 мс.

Меню

Общее
Полное имя : D:\Скачка\учитель на замену\VIDEO_TS\VTS_08_1.VOB
Формат : MPEG-PS
Размер файла : 56,9 Мбайт
Продолжительность : 1 м. 25 с.
Режим общего битрейта : Переменный
Общий поток : 5557 Кбит/сек

Видео
Идентификатор : 224 (0xE0)
Формат : MPEG Video
Версия формата : Version 2
Профиль формата : Main@Main
Параметр BVOP формата : Да
Параметр матрицы формата : По умолчанию
Параметр GOP формата : M=3, N=12
Продолжительность : 1 м. 25 с.
Вид битрейта : Переменный
Битрейт : 5254 Кбит/сек
Максимальный битрейт : 8000 Кбит/сек
Ширина : 720 пикселей
Высота : 576 пикселей
Соотношение сторон : 16:9
Частота кадров : 25,000 кадров/сек
Стандарт вещания : PAL
Цветовое пространство : YUV
Субдискретизация насыщенности : 4:2:0
Битовая глубина : 8 бит
Тип развёртки : Прогрессивная
Метод сжатия : С потерями
Бит/(Пиксели*Кадры) : 0.507
Размер потока : 53,8 Мбайт (95%)

Аудио
Идентификатор : 189 (0xBD)-128 (0x80)
Формат : AC-3
Формат/Информация : Audio Coding 3
Расширение режима : CM (complete main)
Параметр Endianness формата : Big
Режим смешивания : DVD-Video
Продолжительность : 1 м. 25 с.
Вид битрейта : Постоянный
Битрейт : 192 Кбит/сек
Каналы : 2 канала
Расположение каналов : Front: L R
Частота : 48,0 КГц
Битовая глубина : 16 бит
Метод сжатия : С потерями
Размер потока : 1,95 Мбайт (3%)

Текст
Идентификатор : 189 (0xBD)-32 (0x20)
Формат : RLE
Формат/Информация : Run-length encoding
Режим смешивания : DVD-Video
Задержка видео : 1 с. 0 мс.

Меню

Общее
Полное имя : D:\Скачка\учитель на замену\VIDEO_TS\VTS_09_0.BUP
Формат : DVD Video
Профиль формата : Program
Размер файла : 18,0 Кбайт
Продолжительность : 2 м. 21 с.
Режим общего битрейта : Переменный
Общий поток : 1043 бит/сек

Видео
Идентификатор : 224 (0xE0)
Формат : MPEG Video
Версия формата : Version 2
Продолжительность : 2 м. 21 с.
Вид битрейта : Переменный
Ширина : 720 пикселей
Высота : 576 пикселей
Соотношение сторон : 16:9
Частота кадров : 25,000 кадров/сек
Стандарт вещания : PAL
Метод сжатия : С потерями

Аудио #1
Идентификатор : 128 (0x80)
Формат : AC-3
Формат/Информация : Audio Coding 3
Продолжительность : 2 м. 21 с.
Каналы : 2 канала
Частота : 48,0 КГц
Метод сжатия : С потерями

Аудио #2
Идентификатор : 129 (0x81)
Формат : AC-3
Формат/Информация : Audio Coding 3
Продолжительность : 2 м. 21 с.
Каналы : 2 канала
Частота : 48,0 КГц
Метод сжатия : С потерями

Текст
Идентификатор : 32 (0x20)
Формат : RLE
Формат/Информация : Run-length encoding
Битовая глубина : 2 бит

Меню
Продолжительность : 2 м. 21 с.
00:00:00.000 : Chapter 1
List (Audio) : 0 / 1
List (Subtitles 4/3) : 0
List (Subtitles Wide) : 0
List (Subtitles Letterbox) : 0
List (Subtitles Pan&Scan) : 0

Общее
Полное имя : D:\Скачка\учитель на замену\VIDEO_TS\VTS_09_0.IFO
Формат : DVD Video
Профиль формата : Program
Размер файла : 18,0 Кбайт
Продолжительность : 2 м. 21 с.
Режим общего битрейта : Переменный
Общий поток : 1043 бит/сек

Видео
Идентификатор : 224 (0xE0)
Формат : MPEG Video
Версия формата : Version 2
Продолжительность : 2 м. 21 с.
Вид битрейта : Переменный
Ширина : 720 пикселей
Высота : 576 пикселей
Соотношение сторон : 16:9
Частота кадров : 25,000 кадров/сек
Стандарт вещания : PAL
Метод сжатия : С потерями

Аудио #1
Идентификатор : 128 (0x80)
Формат : AC-3
Формат/Информация : Audio Coding 3
Продолжительность : 2 м. 21 с.
Каналы : 2 канала
Частота : 48,0 КГц
Метод сжатия : С потерями

Аудио #2
Идентификатор : 129 (0x81)
Формат : AC-3
Формат/Информация : Audio Coding 3
Продолжительность : 2 м. 21 с.
Каналы : 2 канала
Частота : 48,0 КГц
Метод сжатия : С потерями

Текст
Идентификатор : 32 (0x20)
Формат : RLE
Формат/Информация : Run-length encoding
Битовая глубина : 2 бит

Меню
Продолжительность : 2 м. 21 с.
00:00:00.000 : Chapter 1
List (Audio) : 0 / 1
List (Subtitles 4/3) : 0
List (Subtitles Wide) : 0
List (Subtitles Letterbox) : 0
List (Subtitles Pan&Scan) : 0

Общее
Полное имя : D:\Скачка\учитель на замену\VIDEO_TS\VTS_09_0.VOB
Формат : MPEG-PS
Размер файла : 154 Кбайт
Продолжительность : 520 мс.
Общий поток : 2426 Кбит/сек

Видео
Идентификатор : 224 (0xE0)
Формат : MPEG Video
Версия формата : Version 2
Профиль формата : Main@Main
Параметр BVOP формата : Да
Параметр матрицы формата : Выборочная
Продолжительность : 520 мс.
Максимальный битрейт : 2000 Кбит/сек
Ширина : 720 пикселей
Высота : 576 пикселей
Соотношение сторон : 4:3
Частота кадров : 25,000 кадров/сек
Стандарт вещания : PAL
Цветовое пространство : YUV
Субдискретизация насыщенности : 4:2:0
Битовая глубина : 8 бит
Тип развёртки : Чересстрочная
Порядок развёртки : Верхнее поле первое
Метод сжатия : С потерями

Текст
Идентификатор : 189 (0xBD)-32 (0x20)
Формат : RLE
Формат/Информация : Run-length encoding
Режим смешивания : DVD-Video
Задержка видео : -80 мс.

Меню

Общее
Полное имя : D:\Скачка\учитель на замену\VIDEO_TS\VTS_09_1.VOB
Формат : MPEG-PS
Размер файла : 92,6 Мбайт
Продолжительность : 2 м. 21 с.
Режим общего битрейта : Переменный
Общий поток : 5494 Кбит/сек

Видео
Идентификатор : 224 (0xE0)
Формат : MPEG Video
Версия формата : Version 2
Профиль формата : Main@Main
Параметр BVOP формата : Нет
Параметр матрицы формата : По умолчанию
Параметр GOP формата : M=1, N=12
Продолжительность : 2 м. 21 с.
Вид битрейта : Переменный
Битрейт : 5001 Кбит/сек
Ширина : 720 пикселей
Высота : 576 пикселей
Соотношение сторон : 16:9
Частота кадров : 25,000 кадров/сек
Стандарт вещания : PAL
Цветовое пространство : YUV
Субдискретизация насыщенности : 4:2:0
Битовая глубина : 8 бит
Тип развёртки : Прогрессивная
Метод сжатия : С потерями
Бит/(Пиксели*Кадры) : 0.482
Размер потока : 84,2 Мбайт (91%)

Аудио #1
Идентификатор : 189 (0xBD)-128 (0x80)
Формат : AC-3
Формат/Информация : Audio Coding 3
Расширение режима : CM (complete main)
Параметр Endianness формата : Big
Режим смешивания : DVD-Video
Продолжительность : 2 м. 21 с.
Вид битрейта : Постоянный
Битрейт : 192 Кбит/сек
Каналы : 2 канала
Расположение каналов : Front: L R
Частота : 48,0 КГц
Битовая глубина : 16 бит
Метод сжатия : С потерями
Размер потока : 3,23 Мбайт (3%)

Аудио #2
Идентификатор : 189 (0xBD)-129 (0x81)
Формат : AC-3
Формат/Информация : Audio Coding 3
Расширение режима : CM (complete main)
Параметр Endianness формата : Big
Режим смешивания : DVD-Video
Продолжительность : 2 м. 21 с.
Вид битрейта : Постоянный
Битрейт : 192 Кбит/сек
Каналы : 2 канала
Расположение каналов : Front: L R
Частота : 48,0 КГц
Битовая глубина : 16 бит
Метод сжатия : С потерями
Размер потока : 3,23 Мбайт (3%)

Текст
Идентификатор : 189 (0xBD)-32 (0x20)
Формат : RLE
Формат/Информация : Run-length encoding
Режим смешивания : DVD-Video
Задержка видео : 800 мс.

Меню

Общее
Полное имя : D:\Скачка\учитель на замену\VIDEO_TS\VTS_10_0.BUP
Формат : DVD Video
Профиль формата : Program
Размер файла : 18,0 Кбайт
Продолжительность : 2 м. 8 с.
Режим общего битрейта : Переменный
Общий поток : 1152 бит/сек

Видео
Идентификатор : 224 (0xE0)
Формат : MPEG Video
Версия формата : Version 2
Продолжительность : 2 м. 8 с.
Вид битрейта : Переменный
Ширина : 720 пикселей
Высота : 576 пикселей
Соотношение сторон : 16:9
Частота кадров : 25,000 кадров/сек
Стандарт вещания : PAL
Метод сжатия : С потерями

Аудио
Идентификатор : 128 (0x80)
Формат : AC-3
Формат/Информация : Audio Coding 3
Продолжительность : 2 м. 8 с.
Каналы : 2 канала
Частота : 48,0 КГц
Метод сжатия : С потерями

Текст
Идентификатор : 32 (0x20)
Формат : RLE
Формат/Информация : Run-length encoding
Битовая глубина : 2 бит

Меню
Продолжительность : 2 м. 8 с.
00:00:00.000 : Chapter 1
List (Audio) : 0
List (Subtitles 4/3) : 0
List (Subtitles Wide) : 0
List (Subtitles Letterbox) : 0
List (Subtitles Pan&Scan) : 0

Общее
Полное имя : D:\Скачка\учитель на замену\VIDEO_TS\VTS_10_0.IFO
Формат : DVD Video
Профиль формата : Program
Размер файла : 18,0 Кбайт
Продолжительность : 2 м. 8 с.
Режим общего битрейта : Переменный
Общий поток : 1152 бит/сек

Видео
Идентификатор : 224 (0xE0)
Формат : MPEG Video
Версия формата : Version 2
Продолжительность : 2 м. 8 с.
Вид битрейта : Переменный
Ширина : 720 пикселей
Высота : 576 пикселей
Соотношение сторон : 16:9
Частота кадров : 25,000 кадров/сек
Стандарт вещания : PAL
Метод сжатия : С потерями

Аудио
Идентификатор : 128 (0x80)
Формат : AC-3
Формат/Информация : Audio Coding 3
Продолжительность : 2 м. 8 с.
Каналы : 2 канала
Частота : 48,0 КГц
Метод сжатия : С потерями

Текст
Идентификатор : 32 (0x20)
Формат : RLE
Формат/Информация : Run-length encoding
Битовая глубина : 2 бит

Меню
Продолжительность : 2 м. 8 с.
00:00:00.000 : Chapter 1
List (Audio) : 0
List (Subtitles 4/3) : 0
List (Subtitles Wide) : 0
List (Subtitles Letterbox) : 0
List (Subtitles Pan&Scan) : 0

Общее
Полное имя : D:\Скачка\учитель на замену\VIDEO_TS\VTS_10_0.VOB
Формат : MPEG-PS
Размер файла : 154 Кбайт
Продолжительность : 520 мс.
Общий поток : 2426 Кбит/сек

Видео
Идентификатор : 224 (0xE0)
Формат : MPEG Video
Версия формата : Version 2
Профиль формата : Main@Main
Параметр BVOP формата : Да
Параметр матрицы формата : Выборочная
Продолжительность : 520 мс.
Максимальный битрейт : 2000 Кбит/сек
Ширина : 720 пикселей
Высота : 576 пикселей
Соотношение сторон : 4:3
Частота кадров : 25,000 кадров/сек
Стандарт вещания : PAL
Цветовое пространство : YUV
Субдискретизация насыщенности : 4:2:0
Битовая глубина : 8 бит
Тип развёртки : Чересстрочная
Порядок развёртки : Верхнее поле первое
Метод сжатия : С потерями

Текст
Идентификатор : 189 (0xBD)-32 (0x20)
Формат : RLE
Формат/Информация : Run-length encoding
Режим смешивания : DVD-Video
Задержка видео : -80 мс.

Меню

Общее
Полное имя : D:\Скачка\учитель на замену\VIDEO_TS\VTS_10_1.VOB
Формат : MPEG-PS
Размер файла : 71,5 Мбайт
Продолжительность : 2 м. 8 с.
Режим общего битрейта : Переменный
Общий поток : 4689 Кбит/сек

Видео
Идентификатор : 224 (0xE0)
Формат : MPEG Video
Версия формата : Version 2
Профиль формата : Main@Main
Параметр BVOP формата : Нет
Параметр матрицы формата : По умолчанию
Продолжительность : 2 м. 8 с.
Вид битрейта : Переменный
Битрейт : 4404 Кбит/сек
Ширина : 720 пикселей
Высота : 576 пикселей
Соотношение сторон : 16:9
Частота кадров : 25,000 кадров/сек
Стандарт вещания : PAL
Цветовое пространство : YUV
Субдискретизация насыщенности : 4:2:0
Битовая глубина : 8 бит
Тип развёртки : Прогрессивная
Метод сжатия : С потерями
Бит/(Пиксели*Кадры) : 0.425
Размер потока : 67,2 Мбайт (94%)

Аудио
Идентификатор : 189 (0xBD)-128 (0x80)
Формат : AC-3
Формат/Информация : Audio Coding 3
Расширение режима : CM (complete main)
Параметр Endianness формата : Big
Режим смешивания : DVD-Video
Продолжительность : 2 м. 7 с.
Вид битрейта : Постоянный
Битрейт : 192 Кбит/сек
Каналы : 2 канала
Расположение каналов : Front: L R
Частота : 48,0 КГц
Битовая глубина : 16 бит
Метод сжатия : С потерями
Размер потока : 2,93 Мбайт (4%)

Текст
Идентификатор : 189 (0xBD)-32 (0x20)
Формат : RLE
Формат/Информация : Run-length encoding
Режим смешивания : DVD-Video
Задержка видео : 2 с. 280 мс.

Меню

Общее
Полное имя : D:\Скачка\учитель на замену\VIDEO_TS\VTS_11_0.BUP
Формат : DVD Video
Профиль формата : Program
Размер файла : 18,0 Кбайт
Продолжительность : 3 м. 33 с.
Режим общего битрейта : Переменный
Общий поток : 692 бит/сек

Видео
Идентификатор : 224 (0xE0)
Формат : MPEG Video
Версия формата : Version 2
Продолжительность : 3 м. 33 с.
Вид битрейта : Переменный
Ширина : 720 пикселей
Высота : 576 пикселей
Соотношение сторон : 16:9
Частота кадров : 25,000 кадров/сек
Стандарт вещания : PAL
Метод сжатия : С потерями

Меню
Продолжительность : 3 м. 33 с.
00:00:00.000 : Chapter 1

Общее
Полное имя : D:\Скачка\учитель на замену\VIDEO_TS\VTS_11_0.IFO
Формат : DVD Video
Профиль формата : Program
Размер файла : 18,0 Кбайт
Продолжительность : 3 м. 33 с.
Режим общего битрейта : Переменный
Общий поток : 692 бит/сек

Видео
Идентификатор : 224 (0xE0)
Формат : MPEG Video
Версия формата : Version 2
Продолжительность : 3 м. 33 с.
Вид битрейта : Переменный
Ширина : 720 пикселей
Высота : 576 пикселей
Соотношение сторон : 16:9
Частота кадров : 25,000 кадров/сек
Стандарт вещания : PAL
Метод сжатия : С потерями

Меню
Продолжительность : 3 м. 33 с.
00:00:00.000 : Chapter 1

Общее
Полное имя : D:\Скачка\учитель на замену\VIDEO_TS\VTS_11_0.VOB
Формат : MPEG-PS
Размер файла : 154 Кбайт
Продолжительность : 520 мс.
Общий поток : 2426 Кбит/сек

Видео
Идентификатор : 224 (0xE0)
Формат : MPEG Video
Версия формата : Version 2
Профиль формата : Main@Main
Параметр BVOP формата : Да
Параметр матрицы формата : Выборочная
Продолжительность : 520 мс.
Максимальный битрейт : 2000 Кбит/сек
Ширина : 720 пикселей
Высота : 576 пикселей
Соотношение сторон : 4:3
Частота кадров : 25,000 кадров/сек
Стандарт вещания : PAL
Цветовое пространство : YUV
Субдискретизация насыщенности : 4:2:0
Битовая глубина : 8 бит
Тип развёртки : Чересстрочная
Порядок развёртки : Верхнее поле первое
Метод сжатия : С потерями

Текст
Идентификатор : 189 (0xBD)-32 (0x20)
Формат : RLE
Формат/Информация : Run-length encoding
Режим смешивания : DVD-Video
Задержка видео : -80 мс.

Меню

Общее
Полное имя : D:\Скачка\учитель на замену\VIDEO_TS\VTS_11_1.VOB
Формат : MPEG-PS
Размер файла : 70,6 Мбайт
Продолжительность : 3 м. 33 с.
Режим общего битрейта : Переменный
Общий поток : 2781 Кбит/сек

Видео
Идентификатор : 224 (0xE0)
Формат : MPEG Video
Версия формата : Version 2
Профиль формата : Main@Main
Параметр BVOP формата : Да
Параметр матрицы формата : По умолчанию
Продолжительность : 3 м. 33 с.
Вид битрейта : Переменный
Битрейт : 2725 Кбит/сек
Максимальный битрейт : 8616 Кбит/сек
Ширина : 720 пикселей
Высота : 576 пикселей
Соотношение сторон : 16:9
Частота кадров : 25,000 кадров/сек
Стандарт вещания : PAL
Цветовое пространство : YUV
Субдискретизация насыщенности : 4:2:0
Битовая глубина : 8 бит
Тип развёртки : Прогрессивная
Метод сжатия : С потерями
Бит/(Пиксели*Кадры) : 0.263
Размер потока : 69,2 Мбайт (98%)

pb.wtf



Торрент не зареган: Не зарегистрирован ||
Добавлен: 2012-07-11 13:29
Скачано: 57 раз  [ Список скачавших ]
% Раздел Тема Автор DL S | L
Фильмы [HD 720p, 1080p] (Хороший звук DUB, MVO) [ 4.66 GB ] Учитель на замену / Detachment [2011 BDRip 720p by msltel] MVO DVO VO msltel Скачать
1 | 0
Фильмы [HD 720p, 1080p] (Хороший звук DUB, MVO) [ 11.26 GB ] Учитель на замену / Detachment [2011 BDRip 1080p by msltel] MVO DVO VO msltel Скачать
1 | 0
Фильмы 2011 [ 3.11 GB ] Учитель на замену / Detachment [2011 BDRip AVC by msltel] MVO DVO VO msltel Скачать
1 | 0
Фильмы 2012 [ 701 MB ] Учитель на замену / Detachment [2011 HDRip ] Newton5 Скачать
1 | 0


Последний раз редактировалось: evserga (2012-07-11 15:28), всего редактировалось 2 раз(а)

28-11-2019 20:33  

Отключить всю рекламу на сайте

11-07-2012 14:01 Учитель на замену Скачать торрент  

Мутноватый фильмpb.wtf



12-07-2012 19:01 Учитель на замену Скачать торрент  

zra писал(а):

Мутноватый фильм

ФИЛЬМ МЕЧТА А НАСЧЁТ ЛЮДЕЙ СОМНЕНИЯ!!!!!!!!!!!!!!!!!pb.wtf



    Дорогой пользователь! Огромная просьба, поблагодарите релизера, оцените раздачу и оставьте свои комментарий, если Вы скачали Учитель на замену через торрент бесплатно! Внесите свою лепту в развитие PiratBit!
    Комментировать посты могут только пользователи прошедшие не сложную регистрацию
    Показать сообщения:    

    Учитель на замену через торрент
    Скачать бесплатно Учитель на замену
    Учитель на замену скачать торрент
    Учитель на замену смотреть онлайн
    Cкачать фильм Учитель на замену бесплатно
    Учитель на замену скачать торрент в хорошем качестве
    Учитель на замену смотреть онлайн бесплатно в хорошем качестве


    Вы не можете начинать темы
    Вы не можете отвечать на сообщения
    Вы не можете редактировать свои сообщения
    Вы не можете удалять свои сообщения
    Вы не можете голосовать в опросах
    Вы не можете прикреплять файлы к сообщениям
    Вы можете скачивать файлы