Ссылка на приватное зеркало нашего сайта всего за 1$. Внимание количество ограничено!!!

2 сезон

iTunes

1 сезон

1

iTunes

iTunes

iTunes

1 сезон

RePack

30

ИГРА 18+

pack

ВАЖНО

!!Акция!!

Alien_RageХит недели

RePack

MK11
pack

Забери бонус

RePack

jed

!!Акция!!

Alien_Rage

RePack

fifa19

RePack

Assassins Creed: Odyssey

RePack

NEED FOR SPEED™ PAYBACK

4 сезон

9 сезон

Бесстыжие 9 сезон

Все сериалы

все сериалы на PB.wtf

RePack

FAR CRY 5
  

Жутко Громко И Запредельно Близко / Extremely Loud & Incredibly Close (Стивен Долдри / Stephen Daldry) [2011 г, драма, детектив, приключения, BDRip 720p] MVO Sub Rus + Original Eng pb.wtf

Жутко Громко И Запредельно Близко через торрент pb.wtf

Размер: 5.41 GB | Добавлен: 8 лет 3 мес. назад | Торрент скачан:108 раз
Скачать  

11-07-2012 17:00 Жутко Громко И Запредельно Близко Скачать торрент  

Жутко Громко И Запредельно Близко / Extremely Loud & Incredibly Close


Год выпуска: 2011
Страна: США
Студия: Paramount Pictures, Scott Rudin Productions, Warner Bros. Pictures
Жанр: драма, детектив, приключения
Продолжительность: 02:09:28
Перевод: Профессиональный (многоголосый закадровый) |Лицензия|
Cубтитры: Russian [Full, Forced], English
Оригинальная аудиодорожка: английский
Режиссер: Стивен Долдри / Stephen Daldry
В ролях: Том Хэнкс, Сандра Буллок, Томас Хорн, Макс фон Сюдов, Виола Дэвис, Джон Гудмен, Джеффри Райт, Зои Колдуэлл, Дэннис Хирн, Пол Клементовиц
Описание: Десятилетний Оскар теряет отца в день атаки на башни-близнецы в Нью-Йорке. По всему городу Оскар ищет информацию, которая должна привести его к разрешению загадки отца. На пути мальчику встретятся разные люди, но их всех объединяет страшная катастрофа, поэтому каждый пытается справиться с собственным горем.
Релиз от:
Семпл
Тип релиза: BDRip 720p
Контейнер: MKV
Видео кодек: AVC
Аудио кодек: AC3 / DTS
Видео: 1280x534 at 23.976 fps, x264@L4.1 ~3742 kbps avg
Аудио 1: Russian: 48 kHz, AC3, 3/2 (L,C,R,l,r) + LFE ch, ~640 kbps avg
Аудио 2: English: 48 kHz, DTS, 3/2 (L,C,R,l,r) + LFE ch, ~1510 kbps avg
Complete name : Zhutko.gromko.i.zapredelno.blizko.2011.P.BDRip.720p.IRONCLUB.mkv
Format : Matroska
Format version : Version 2
File size : 5.41 GiB
Duration : 2h 9mn
Overall bit rate : 5 981 Kbps
Movie name : IRONCLUB
Encoded date : UTC 2012-07-11 06:34:01
Writing application : mkvmerge v4.9.1 ('Ich will') built on Jul 11 2011 23:53:15
Writing library : libebml v1.2.1 + libmatroska v1.1.1
Video
ID : 1
Format : AVC
Format/Info : Advanced Video Codec
Format profile : High@L4.1
Format settings, CABAC : Yes
Format settings, ReFrames : 11 frames
Codec ID : V_MPEG4/ISO/AVC
Duration : 2h 9mn
Bit rate : 3 712 Kbps
Width : 1 280 pixels
Height : 534 pixels
Display aspect ratio : 2.40:1
Frame rate : 23.976 fps
Color space : YUV
Chroma subsampling : 4:2:0
Bit depth : 8 bits
Scan type : Progressive
Bits/(Pixel*Frame) : 0.227
Stream size : 3.36 GiB (62%)
Title : Extremely Loud & Incredibly Close 2011 720p BluRay DD5.1 x264-ThD
Writing library : x264 core 122 r2184 5c85e0a
Encoding settings : cabac=1 / ref=11 / deblock=1:-3:-3 / analyse=0x3:0x133 / me=umh / subme=11 / psy=1 / psy_rd=0.90:0.10 / mixed_ref=1 / me_range=32 / chroma_me=1 / trellis=2 / 8x8dct=1 / cqm=0 / deadzone=21,11 / fast_pskip=0 / chroma_qp_offset=-3 / threads=36 / sliced_threads=0 / nr=0 / decimate=0 / interlaced=0 / bluray_compat=0 / constrained_intra=0 / bframes=11 / b_pyramid=2 / b_adapt=2 / b_bias=0 / direct=3 / weightb=1 / open_gop=0 / weightp=2 / keyint=250 / keyint_min=23 / scenecut=40 / intra_refresh=0 / rc=crf / mbtree=0 / crf=16.0 / qcomp=0.60 / qpmin=0 / qpmax=69 / qpstep=4 / ip_ratio=1.40 / pb_ratio=1.30 / aq=2:0.65
Language : English
Default : Yes
Forced : Yes
Audio #1
ID : 2
Format : AC-3
Format/Info : Audio Coding 3
Mode extension : CM (complete main)
Format settings, Endianness : Big
Codec ID : A_AC3
Duration : 2h 9mn
Bit rate mode : Constant
Bit rate : 640 Kbps
Channel(s) : 6 channels
Channel positions : Front: L C R, Side: L R, LFE
Sampling rate : 48.0 KHz
Bit depth : 16 bits
Compression mode : Lossy
Stream size : 593 MiB (11%)
Title : DD 5.1 @ 640 kbps - MVO
Language : Russian
Default : Yes
Forced : Yes
Audio #2
ID : 3
Format : DTS
Format/Info : Digital Theater Systems
Codec ID : A_DTS
Duration : 2h 9mn
Bit rate mode : Constant
Bit rate : 1 510 Kbps
Channel(s) : 6 channels
Channel positions : Front: L C R, Side: L R, LFE
Sampling rate : 48.0 KHz
Bit depth : 24 bits
Compression mode : Lossy
Stream size : 1.37 GiB (25%)
Title : DTS 5.1 @ 1536 kbps
Language : English
Default : No
Forced : No
Text #1
ID : 4
Format : UTF-8
Codec ID : S_TEXT/UTF8
Codec ID/Info : UTF-8 Plain Text
Title : Full
Language : Russian
Default : No
Forced : No
Text #2
ID : 5
Format : UTF-8
Codec ID : S_TEXT/UTF8
Codec ID/Info : UTF-8 Plain Text
Language : Russian
Default : No
Forced : No
Text #3
ID : 6
Format : UTF-8
Codec ID : S_TEXT/UTF8
Codec ID/Info : UTF-8 Plain Text
Title : Forced
Language : Russian
Default : No
Forced : No
Text #4
ID : 7
Format : UTF-8
Codec ID : S_TEXT/UTF8
Codec ID/Info : UTF-8 Plain Text
Language : English
Default : No
Forced : No
Menu
00:00:00.000 : en:00:00:00.000
00:09:45.168 : en:00:09:45.168
00:19:20.868 : en:00:19:20.868
00:30:38.420 : en:00:30:38.420
00:40:29.761 : en:00:40:29.761
00:50:47.670 : en:00:50:47.670
01:02:01.676 : en:01:02:01.676
01:10:17.672 : en:01:10:17.672
01:20:05.676 : en:01:20:05.676
01:30:13.950 : en:01:30:13.950
01:38:48.256 : en:01:38:48.256
01:49:26.310 : en:01:49:26.310
02:00:31.683 : en:02:00:31.683
02:02:19.958 : en:02:02:19.958
pb.wtf



Скачать Жутко Громко И Запредельно Близко через торрент http://i40.fastpic.ru/big/2012/0711/1e/0dd350684212a52d7201af2e2420171e.png Скачать фильм Жутко Громко И Запредельно Близко через торрент бесплантно в хорошем качестве Описание: Десятилетний Оскар теряет отца в день атаки на башни-близнецы в Нью-Йорке. По всему городу Оскар ищет информацию, которая должна ... 10 10 1
Info! Золотая раздача, скачанное не засчитывается.
Торрент: Зарегистрирован [2012-07-11 17:00] · скачан: 108 раз
Статус: √ проверено
Размер: 5.41 GB
Как cкачать? Как скачать Жутко Громко И Запредельно Близко через торрент | qTorrent

28-11-2019 20:33  

Отключить всю рекламу на сайте

    Дорогой пользователь! Огромная просьба, поблагодарите релизера, оцените раздачу и оставьте свои комментарий, если Вы скачали Жутко Громко И Запредельно Близко через торрент бесплатно! Внесите свою лепту в развитие PiratBit!
    Комментировать посты могут только пользователи прошедшие не сложную регистрацию
    Показать сообщения:    

    Жутко Громко И Запредельно Близко через торрент
    Скачать бесплатно Жутко Громко И Запредельно Близко
    Жутко Громко И Запредельно Близко скачать торрент
    Жутко Громко И Запредельно Близко смотреть онлайн
    Cкачать фильм Жутко Громко И Запредельно Близко бесплатно
    Жутко Громко И Запредельно Близко скачать торрент в хорошем качестве
    Жутко Громко И Запредельно Близко смотреть онлайн бесплатно в хорошем качестве


    Вы не можете начинать темы
    Вы не можете отвечать на сообщения
    Вы не можете редактировать свои сообщения
    Вы не можете удалять свои сообщения
    Вы не можете голосовать в опросах
    Вы не можете прикреплять файлы к сообщениям
    Вы можете скачивать файлы