2 сезон

iTunes

1 сезон

1

iTunes

iTunes

iTunes

1 сезон

RePack

30

ИГРА 18+

pack

ВАЖНО

!!Акция!!

Alien_RageХит недели

RePack

MK11
pack

Забери бонус

RePack

jed

!!Акция!!

Alien_Rage

RePack

fifa19

RePack

Assassins Creed: Odyssey

RePack

NEED FOR SPEED™ PAYBACK

4 сезон

9 сезон

Бесстыжие 9 сезон

Все сериалы

все сериалы на PB.wtf

RePack

FAR CRY 5
  

Престиж / The Prestige (Кристофер Нолан) [2006 г., триллер, драма, детектив, BDRip (720p), DUB + Оригинал (Отдельно)] pb.wtf

Престиж через торрент pb.wtf

Размер: 5.52 GB | Добавлен: 8 лет 3 мес. назад | Торрент скачан:78 раз
Скачать  

11-07-2012 18:32 Престиж Скачать торрент  

Престиж / The Prestige
«Дружба, ставшая соперничеством. Соперничество, превратившееся во вражду.»
Год выпуска
: 2006
Страна: США
Жанр: триллер, драма, детектив
Продолжительность: 125 мин
Перевод: Дубляж + Оригинал(Отдельно)

Режиссер: Кристофер Нолан
Продюссер: Кристофер Нолан, Аарон Райдер, Эмма Томас

Бюджет: $40 000 000
IMDB

В ролях
Хью Джекман, Кристиан Бэйл, Майкл Кейн, Пайпер Перабо, Ребекка Холл, Скарлетт Йоханссон, Саманта Мэхурин, Дэвид Боуи, Энди Серкис, Дэниэл Дэвис.

Описание
Роберт и Альфред — фокусники-иллюзионисты, которые на рубеже XIX и XX веков соперничали друг с другом в Лондоне. С годами их дружеская конкуренция на профессиональной почве перерастает в настоящую войну.
Они готовы на все, чтобы выведать друг у друга секреты фантастических трюков и сорвать их исполнение. Непримиримая вражда, вспыхнувшая между ними, начинает угрожать жизни окружающих их людей…

Качество: BDRip (720p)
Формат: MKV
Видео кодек: V_MPEG4/ISO/AVC
Аудио кодек: AC3
Видео: 1280x544 | 5161 Кбит/сек(2,35:1) | 23,976 кадра/сек
Аудио#1: 48 kHz, AC3, 6 каналов, ~448.00 kbps avg |rus|
Аудио#2: 48 kHz, AC3, 6 каналов, ~448.00 kbps avg |eng| отдельно
Аудио#3: Русские / Английские
Общее
Уникальный идентификатор : 177215137260417501655402302892809315251 (0x855264D991E50717BD179D0092FEE3B3)
Полное имя : C:\Users\Артём\Desktop\ЗагрУззки\Prestizh.2006.RUS.BDRip.720p.-GYN\Prestizh.2006.RUS.BDRip.720p.h264.AC3.-GYN.mkv
Формат : Matroska
Версия формата : Version 2
Размер файла : 5,11 Гбайт
Продолжительность : 2 ч. 10 м.
Режим общего битрейта : Переменный
Общий поток : 5611 Кбит/сек
Название фильма : The Prestige (2006)
Дата кодирования : UTC 2012-02-21 11:32:45
Программа кодирования : mkvmerge v3.3.0 ('Language') built on Mar 24 2010 14:59:24
Библиотека кодирования : libebml v0.8.0 + libmatroska v0.9.0

Видео
Идентификатор : 1
Формат : AVC
Формат/Информация : Advanced Video Codec
Профиль формата : High@L4.1
Параметр CABAC формата : Да
Параметр ReFrames формата : 6 кадров
Идентификатор кодека : V_MPEG4/ISO/AVC
Продолжительность : 2 ч. 10 м.
Вид битрейта : Переменный
Битрейт : 5051 Кбит/сек
Максимальный битрейт : 5161 Кбит/сек
Ширина : 1280 пикселей
Высота : 544 пикселя
Соотношение сторон : 2,35:1
Частота кадров : 23,976 кадра/сек
Цветовое пространство : YUV
Субдискретизация насыщенности : 4:2:0
Битовая глубина : 8 бит
Тип развёртки : Прогрессивная
Бит/(Пиксели*Кадры) : 0.303
Размер потока : 4,60 Гбайт (90%)
Заголовок : Encoded by GYN
Default : Да
Forced : Нет

Аудио
Идентификатор : 2
Формат : AC-3
Формат/Информация : Audio Coding 3
Расширение режима : CM (complete main)
Параметр Endianness формата : Big
Идентификатор кодека : A_AC3
Продолжительность : 2 ч. 10 м.
Вид битрейта : Постоянный
Битрейт : 448 Кбит/сек
Каналы : 6 каналов
Расположение каналов : Front: L C R, Side: L R, LFE
Частота : 48,0 КГц
Битовая глубина : 16 бит
Метод сжатия : С потерями
Размер потока : 418 Мбайт (8%)
Заголовок : DUB
Язык : Russian
Default : Да
Forced : Нет

Текст #1
Идентификатор : 3
Формат : UTF-8
Идентификатор кодека : S_TEXT/UTF8
Идентификатор кодека/Информация : UTF-8 Plain Text
Язык : Russian
Default : Нет
Forced : Нет

Текст #2
Идентификатор : 4
Формат : UTF-8
Идентификатор кодека : S_TEXT/UTF8
Идентификатор кодека/Информация : UTF-8 Plain Text
Язык : English
Default : Нет
Forced : Нет

Релиз от
: pb.wtf



Скачать Престиж через торрент http://pic.kartinco.top/images/1/tggo85msfc.jpg Скачать фильм Престиж через торрент бесплантно в хорошем качестве ОписаниеРоберт и Альфред — фокусники-иллюзионисты, которые на рубеже XIX и XX веков соперничали друг с другом в Лондоне. С годами их ... 10 10 5
Info! Золотая раздача, скачанное не засчитывается.
Торрент: Зарегистрирован [2012-07-11 18:32] · скачан: 78 раз
Статус: √ проверено
Размер: 5.52 GB
Как cкачать? Как скачать Престиж через торрент | qTorrent

% Раздел Тема Автор DL S | L
Ultra HD (UHD: 2K, 4K, 8K) — видео сверхвысокой чёткости [ 68.82 GB ] Престиж / The Prestige [2006 UHD Blu-ray 2160p] DUB bober100 Скачать
1 | 0
Фильмы [HD 720p, 1080p] (Хороший звук DUB, MVO) [ 21.66 GB ] Престиж / The Prestige [2006 BDRip 1080p by msltel] DUB 2 x DVO 4 x AVO msltel Скачать
1 | 0
Фильмы [HD 720p, 1080p] (Хороший звук DUB, MVO) [ 7.88 GB ] Престиж / The Prestige [2006 BDRip 720p by msltel] DUB 2 x DVO 4 x AVO msltel Скачать
2 | 0
Ultra HD (UHD: 2K, 4K, 8K) — видео сверхвысокой чёткости [ 74.8 GB ] Престиж / The Prestige [2006 UHD BDRemux 2160p] DUB+2xDVO+4xAVO+2xMVO bober100 Скачать
1 | 0
Фильмы (HD 720p, 1080p) (48-60 fps) [ 6.36 GB ] Престиж / The Prestige [2006 BDRip 720p / 60 fps] DUB еnvy Скачать
2 | 0
Фильмы 2006-2008 [ 1.47 GB ] Престиж / The Prestige [2006 HDRip] Frim Скачать
1 | 0
Фильмы 2006-2008 [ 2.18 GB ] Престиж / The Prestige [2006 BDRip] .::Sergey::. Скачать
3 | 0

28-11-2019 20:33  

Отключить всю рекламу на сайте

11-07-2012 18:51 Престиж Скачать торрент  

Отличный фильмpb.wtf



11-07-2012 19:10 Престиж Скачать торрент  

Шедевр прямpb.wtf



12-07-2012 06:14 Престиж Скачать торрент  

аха суперpb.wtf



    Дорогой пользователь! Огромная просьба, поблагодарите релизера, оцените раздачу и оставьте свои комментарий, если Вы скачали Престиж через торрент бесплатно! Внесите свою лепту в развитие PiratBit!
    Комментировать посты могут только пользователи прошедшие не сложную регистрацию
    Показать сообщения:    

    Престиж через торрент
    Скачать бесплатно Престиж
    Престиж скачать торрент
    Престиж смотреть онлайн
    Cкачать фильм Престиж бесплатно
    Престиж скачать торрент в хорошем качестве
    Престиж смотреть онлайн бесплатно в хорошем качестве


    Вы не можете начинать темы
    Вы не можете отвечать на сообщения
    Вы не можете редактировать свои сообщения
    Вы не можете удалять свои сообщения
    Вы не можете голосовать в опросах
    Вы не можете прикреплять файлы к сообщениям
    Вы можете скачивать файлы