2 сезон

iTunes

MVO

1

2 сезон

iTunes

iTunes

1 сезон

RePack

30

Новинка

ВАЖНО

ИГРА 18+

pack

RePack

MK11
pack

Легкие деньги

RePack

jed

RePack

fifa19

RePack

RDR2

RePack

NEED FOR SPEED™ PAYBACK

4 сезон

9 сезон

Бесстыжие 9 сезон

Все сериалы

все сериалы на PB.wtf

RePack

FAR CRY 5

Anonymous, доброй ночи, мы не успеваем собрать деньги на оплату серверов за декабрь и январь, помогите нам пожалуйста в это трудное время. В качестве благодарности мы отключим Вам всю рекламу на сайте (укажите свой ник в строку Ваше имя)!

×
  
Magnet ссылка

[Lady-Sonia] Lady Sonia (Pornography In The English Countryside) [13.07.2012 г., Stockings, Nylons, Panties, Masturbation, SATRip] pb.wtf

через торрент pb.wtf

Размер: 243 MB | Добавлен: 8 лет 6 мес. назад | Торрент скачан:159 раз
Скачать  

13-07-2012 08:03 Скачать торрент  

[Lady-Sonia.com]
Lady Sonia
Pornography In The English
Countryside
[13.07.2012 г.]

Имя актрисы: Lady Sonia
Название ролика: Pornography In The English Countryside
Подсайт и сайт: Lady-Sonia.com

Год производства: 2012 г.
Жанр: Stockings, Nylons, Panties, Masturbation
Продолжительность: 00:16:18

Качество: SATRip
Формат видео: MP4
Видео кодек: AVC
Аудио кодек: AAC
Видео: 25.000 fps, 1 985 Kbps, 720x404
Аудио: 92.8 Kbps, 2 channels, 48.0 KHz

Описание:
My husband is away at a meeting in London and the weather today is just too beautiful to stay indoors so shall we go out to play?
When my husband is at home I am a respectable married English lady but when he is away and I want to play I am a REAL slut for the right man…
Do you want me to show you? Shall we go somewhere nice and quiet so that I can undress for you and show you my BIG 34 “F” cup tits and my HUGE nipples?
Do you want to watch me as I bend over for you and finger myself HARD with two fingers so that you can see EVERYTHING?
Perhaps I can then open my lovely long legs WIDE for you so that you can fill me with your hot thick cum with your HUGE throbbing cock…
I am your pornography and I am waiting to play with you right now!

General
Complete name : Pornography In The English Countryside.mp4
Format : MPEG-4
Format profile : Base Media / Version 2
Codec ID : mp42
File size : 243 MiB
Duration : 16mn 18s
Overall bit rate mode : Variable
Overall bit rate : 2 082 Kbps
Encoded date : UTC 2012-05-30 21:59:35
Tagged date : UTC 2012-05-30 21:59:35
Writing library : AVS

Video
ID : 1
Format : AVC
Format/Info : Advanced Video Codec
Format profile : Baseline@L1.3
Format settings, CABAC : No
Format settings, ReFrames : 1 frame
Codec ID : avc1
Codec ID/Info : Advanced Video Coding
Duration : 16mn 18s
Bit rate : 1 985 Kbps
Width : 720 pixels
Height : 404 pixels
Display aspect ratio : 16:9
Frame rate mode : Constant
Frame rate : 25.000 fps
Color space : YUV
Chroma subsampling : 4:2:0
Bit depth : 8 bits
Scan type : Progressive
Bits/(Pixel*Frame) : 0.273
Stream size : 231 MiB (95%)
Language : English
Encoded date : UTC 2012-05-30 21:59:35
Tagged date : UTC 2012-05-30 21:59:35

Audio
ID : 2
Format : AAC
Format/Info : Advanced Audio Codec
Format profile : LC
Codec ID : 40
Duration : 16mn 18s
Bit rate mode : Variable
Bit rate : 92.8 Kbps
Maximum bit rate : 96.0 Kbps
Channel(s) : 2 channels
Channel positions : Front: L R
Sampling rate : 48.0 KHz
Compression mode : Lossy
Stream size : 10.8 MiB (4%)
Language : English
Encoded date : UTC 2012-05-30 21:59:35
Tagged date : UTC 2012-05-30 21:59:35
pb.wtf



pack Скачать через торрент http://i41.fastpic.ru/big/2012/0713/4a/f6ecf0fb24aa1330edf6a4089f8ec94a.jpg Скачать фильм [Lady-Sonia] Lady Sonia через торрент бесплантно в хорошем качестве Описание:My husband is away at a meeting in London and the weather today is just too beautiful to stay indoors so shall we go out to ... 3 10 2
Info! Золотая раздача, скачанное не засчитывается.
Торрент: Зарегистрирован [2012-07-13 08:03] · скачан: 159 раз
Статус: √ проверено
Размер: 243 MB
Как cкачать? Как скачать через торрент | UTorrent

28-11-2019 20:33  

Отключить всю рекламу на сайте

    Дорогой пользователь! Огромная просьба, поблагодарите релизера, оцените раздачу и оставьте свои комментарий, если Вы скачали через торрент бесплатно! Внесите свою лепту в развитие PiratBit!
    Комментировать посты могут только пользователи прошедшие не сложную регистрацию
    Показать сообщения:    

    через торрент
    Скачать бесплатно
    скачать торрент
    смотреть онлайн
    Cкачать фильм бесплатно
    скачать торрент в хорошем качестве
    смотреть онлайн бесплатно в хорошем качестве


    Вы не можете начинать темы
    Вы не можете отвечать на сообщения
    Вы не можете редактировать свои сообщения
    Вы не можете удалять свои сообщения
    Вы не можете голосовать в опросах
    Вы не можете прикреплять файлы к сообщениям
    Вы можете скачивать файлы