1 сезон

3 сезон

iTunes

1

Line

MVO

iTunes

13

1 сезон

RePack

30

Deluxe

pack

Лицензия

ВАЖНО

ИГРА 18+

pack

RePack

MK11

RePack

jed

RePack

fifa19

RePack

RDR2

RePack

NEED FOR SPEED™ PAYBACK

4 сезон

9 сезон

Бесстыжие 9 сезон

Все сериалы

все сериалы на PB.wtf

RePack

FAR CRY 5

Anonymous, добрый вечер, мы катастрофически не успеваем собрать деньги на оплату серверов, помогите нам пожалуйста 5,10,15р., для нас важна любая помощь . В качестве благодарности мы отключим Вам всю рекламу на сайте (укажите свой ник в строку Ваше имя)!

×
  
Magnet ссылка

Напролом / Lockout (Джеймс Мэтер, Стивен Ст. Леджер / James Mather, Stephen St. Leger) [2012, фантастика, боевик, триллер, DVD9] [UNRATED] R5 pb.wtf

Напролом через торрент pb.wtf

Размер: 6.84 GB | Добавлен: 9 лет назад | Торрент скачан:268 раз
Скачать  

14-07-2012 08:26 Напролом Скачать торрент  


Напролом / Lockout / UNRATED
«В одиночку против 500. В чем проблема?»
Страна: Франция
Студия: Canal+ [fr], Ciné, Europa Corp.
Жанр: фантастика, боевик, триллер
Год выпуска: 2012
Мировая премьера: 7 апреля 2012
Российская премьера: 17 мая 2012
Дата выхода DVD: 17 июля 2012
Дата выхода Blu-Ray: 17 июля 2012
Продолжительность: 01:31:08
Перевод: Профессиональный (дублированный) [Лицензия]
Cубтитры: русские
Оригинальная аудиодорожка: английский
Режиссер: Джеймс Мэтер, Стивен Ст. Леджер / James Mather, Stephen St. Leger
В ролях: Гай Пирс, Мэгги Грэйс, Винсент Риган, Джозеф Гилган, Катрин Чан, Роберт Джон Бёрк, Джеймс Хонг, Энсон Маунт, Крис Сарандон, Сандор Текси, Джозеф Сикора, Игорь Жижикин, Регги Ли
Описание: Орбитальная станция MS1 — крупнейшая космическая тюрьма, где в анабиозе содержатся тысячи опасных преступников. Ходят слухи, что над погруженными в искусственный сон узниками проводятся противозаконные эксперименты. С расследованием на станцию отправлена комиссия во главе с Эмили Уорнок, дочерью президента США.
Неожиданно ситуация выходит из-под контроля, и вся станция оказывается захвачена уголовниками. Спецагент Сноу, несправедливо обвиненный в государственной измене, получает задание проникнуть в самую неприступную тюрьму во Вселенной и спасти Эмили. Это его единственный шанс вернуть себе доброе имя и получить свободу.

Бонусы: Интервью Гая Пирса, Интервью Мегги Грейс, Интервью Джозефа Гилгана, Интервью Стивена Ст. Леджера.

Качество: DVD9 R5
Формат: DVD-Video
Видео кодек: MPEG2
Аудио кодек: AC3 + DTS
Видео: PAL 16:9 (720x576(0.545)) MPEG Video, 25,000 кадр/сек, 5650 Кбит/сек
Аудио #1: Russian (Dolby AC3, 6 ch) 256 Кбит/сек, 48,0 КГц
Аудио #2: Russian (DTS, 6 ch) 768 Кбит/сек, 48,0 КГц
Аудио #3: English (Dolby AC3, 6 ch) 256 Кбит/сек, 48,0 КГц



Title:
Size: 6.84 Gb ( 7 168 048 KBytes ) - DVD-9
Enabled regions: 1, 2, 3, 4, 5, 6, 7, 8

VTS_01 :
Play Length: 00:00:10
Video: PAL 16:9 (720x576) VBR, Auto Pan&Scan, Auto Letterboxed

VTS_02 :
Play Length: 00:00:06
Video: PAL 16:9 (720x576) VBR, Auto Pan&Scan, Auto Letterboxed

VTS_03 :
Play Length: 01:31:08
Video: PAL 16:9 (720x576) VBR, Auto Pan&Scan, Auto Letterboxed
Audio:
Not specified (Dolby AC3, 6 ch)
Not specified (DTS, 6 ch)
Not specified (Dolby AC3, 6 ch)
Subtitles:
Not specified
Not specified
Not specified

VTS_04 :
Play Length: 00:55:53
Video: PAL 16:9 (720x576) VBR, Auto Pan&Scan, Auto Letterboxed
Audio:
Not specified (Dolby AC3, 2 ch)
Not specified (Dolby AC3, 2 ch)
Not specified (Dolby AC3, 2 ch)
Subtitles:
Not specified
Not specified
Not specified

Menu Video:
PAL 16:9 (720x576) VBR
Auto Pan&Scan, Auto Letterboxed
Menu Subtitles:
Not specified
Menu English Language Unit :
Root Menu
Общее
Полное имя : J:\Новинки 2012\Naprolom.2012.DVD9\VIDEO_TS\VTS_03_1.VOB
Формат : MPEG-PS
Размер файла : 1024 Мбайт
Продолжительность : 20 м.
Режим общего битрейта : Переменный
Общий поток : 7057 Кбит/сек

Видео
Идентификатор : 224 (0xE0)
Формат : MPEG Video
Версия формата : Version 2
Профиль формата : Main@Main
Параметр BVOP формата : Да
Параметр матрицы формата : Выборочная
Параметр GOP формата : M=3, N=15
Продолжительность : 20 м.
Вид битрейта : Переменный
Битрейт : 5650 Кбит/сек
Максимальный битрейт : 8300 Кбит/сек
Ширина : 720 пикселей
Высота : 576 пикселей
Соотношение сторон : 16:9
Частота кадров : 25,000 кадров/сек
Стандарт вещания : PAL
Цветовое пространство : YUV
Субдискретизация насыщенности : 4:2:0
Битовая глубина : 8 бит
Тип развёртки : Чересстрочная
Порядок развёртки : Верхнее поле первое
Метод сжатия : С потерями
Бит/(Пиксели*Кадры) : 0.545
Размер потока : 820 Мбайт (80%)

Аудио #1
Идентификатор : 189 (0xBD)-128 (0x80)
Формат : AC-3
Формат/Информация : Audio Coding 3
Расширение режима : CM (complete main)
Параметр Endianness формата : Big
Режим смешивания : DVD-Video
Продолжительность : 20 м.
Вид битрейта : Постоянный
Битрейт : 256 Кбит/сек
Каналы : 6 каналов
Расположение каналов : Front: L C R, Side: L R, LFE
Частота : 48,0 КГц
Битовая глубина : 16 бит
Метод сжатия : С потерями
Размер потока : 37,1 Мбайт (4%)

Аудио #2
Идентификатор : 189 (0xBD)-130 (0x82)
Формат : AC-3
Формат/Информация : Audio Coding 3
Расширение режима : CM (complete main)
Параметр Endianness формата : Big
Режим смешивания : DVD-Video
Продолжительность : 20 м.
Вид битрейта : Постоянный
Битрейт : 256 Кбит/сек
Каналы : 6 каналов
Расположение каналов : Front: L C R, Side: L R, LFE
Частота : 48,0 КГц
Битовая глубина : 16 бит
Метод сжатия : С потерями
Размер потока : 37,1 Мбайт (4%)

Аудио #3
Идентификатор : 189 (0xBD)-137 (0x89)
Формат : DTS
Формат/Информация : Digital Theater Systems
Режим смешивания : DVD-Video
Продолжительность : 20 м.
Вид битрейта : Постоянный
Битрейт : 755 Кбит/сек
Каналы : 6 каналов
Расположение каналов : Front: L C R, Side: L R, LFE
Частота : 48,0 КГц
Битовая глубина : 16 бит
Метод сжатия : С потерями
Размер потока : 109 Мбайт (11%)

Текст
Идентификатор : 189 (0xBD)-34 (0x22)
Формат : RLE
Формат/Информация : Run-length encoding
Режим смешивания : DVD-Video










pb.wtf



Скачать Напролом через торрент http://i43.fastpic.ru/big/2012/0714/d3/871442c2ea484563fc9728187fb7f0d3.jpg Скачать фильм Напролом через торрент бесплантно в хорошем качестве Описание: Орбитальная станция MS1 — крупнейшая космическая тюрьма, где в анабиозе содержатся тысячи опасных преступников. Ходят слухи, что ... 10 10 1
Info! Золотая раздача, скачанное не засчитывается.
Торрент: Зарегистрирован [2012-07-14 08:26] · скачан: 268 раз
Статус: √ проверено
Размер: 6.84 GB
Как cкачать? Как скачать Напролом через торрент | UTorrent

28-11-2019 20:33  

Отключить всю рекламу на сайте

16-07-2012 14:52 Напролом Скачать торрент  

спасибо..........pb.wtf



    Дорогой пользователь! Огромная просьба, поблагодарите релизера, оцените раздачу и оставьте свои комментарий, если Вы скачали Напролом через торрент бесплатно! Внесите свою лепту в развитие PiratBit!
    Комментировать посты могут только пользователи прошедшие не сложную регистрацию
    Показать сообщения:    

    Напролом через торрент
    Скачать бесплатно Напролом
    Напролом скачать торрент
    Напролом смотреть онлайн
    Cкачать фильм Напролом бесплатно
    Напролом скачать торрент в хорошем качестве
    Напролом смотреть онлайн бесплатно в хорошем качестве


    Вы не можете начинать темы
    Вы не можете отвечать на сообщения
    Вы не можете редактировать свои сообщения
    Вы не можете удалять свои сообщения
    Вы не можете голосовать в опросах
    Вы не можете прикреплять файлы к сообщениям
    Вы можете скачивать файлы