2 сезон

iTunes

MVO

1

2 сезон

iTunes

iTunes

1 сезон

RePack

30

Ultimate

ВАЖНО

ИГРА 18+

pack

RePack

MK11
pack

Легкие деньги

RePack

jed

RePack

fifa19

RePack

RDR2

RePack

NEED FOR SPEED™ PAYBACK

4 сезон

9 сезон

Бесстыжие 9 сезон

Все сериалы

все сериалы на PB.wtf

RePack

FAR CRY 5

Anonymous, доброе утро, мы не успеваем собрать деньги на оплату серверов за декабрь и январь, помогите нам пожалуйста в это трудное время. В качестве благодарности мы отключим Вам всю рекламу на сайте (укажите свой ник в строку Ваше имя)!

×
  
Magnet ссылка

Чудеса Вселенной / Wonders of the Universe (4 серии из 4)(Стивен Кутэр, Крис Холт, Михаэль Лачман / Stephen Cooter, Chris Holt, Michael Lachmann) [2011 г., документальный, BDRip 1080p] pb.wtf

Чудеса Вселенной через торрент pb.wtf

Размер: 24.98 GB | Добавлен: 8 лет 6 мес. назад | Торрент скачан:168 раз
Скачать  

14-07-2012 18:06 Чудеса Вселенной Скачать торрент  

Чудеса Вселенной / Wonders of the Universe
Год выпуска: 2011
Страна: Великобритания
Жанр: документальный
Продолжительность: 03:54:27
Перевод: Профессиональный (одноголосый) |Евгений Малуха, студия "Омикрон"|
Русские субтитры: нет
Режиссер: Стивен Кутэр, Крис Холт, Михаэль Лачман / Stephen Cooter, Chris Holt, Michael Lachmann
В ролях: Брайан Кокс

Описание:
Кто мы? Почему мы здесь? Откуда мы пришли? Это самые фундаментальные и извечные вопросы которые мы можем задать. И это неотъемлемая часть человеческой природы, которая стремиться найти на них ответы.
Мы можем проследить нашу родословную на протяжении сотен тысяч лет до самой зари человечества. Но на самом деле наша история простирается гораздо дальше:
Она начинается с начала вселенной. Наша Вселенная зародилась примерно 13,7 миллиардов лет назад, и сегодня она наполнена более чем 100 миллиардами галактик. И каждая из них содержит сотни миллиардов звезд и захватывающие разнообразие чудес.
В этом новом революционном документальном цикле профессор Брайан Кокс рассказывает эпическую историю нашей Вселенной, тем самым показывая, что мы её неотъемлемая часть.

Список серий:
• Destiny / Cудьба.
• Stardust / Звездная пыль.
• Falling / Падение.
• Messengers / Посланники.

Качество: BDRip 1080p
Формат: MKV
Видео кодек: x264
Аудио кодек: AC3
Видео: 1920x1080 at 25.000 fps, x264@L4.1, 2pass, ~13.2 Mbps avg
Аудио 1: 48 kHz/16-bit, AC3 2/0 (L,R) ch, ~448.00 kbps avg |Russian|
Аудио 2: 48 kHz/16-bit, AC3 2/0 (L,R) ch, ~448.00 kbps avg |English|
Формат : Matroska
Размер файла : 5,53 Гбайт
Продолжительность : 59 м.
Общий поток : 13,4 Мбит/сек
Название фильма : HDCLUB
Дата кодирования : UTC 2011-07-09 23:01:38
Программа кодирования : mkvmerge v3.2.0 ('Beginnings') built on Feb 12 2010 16:46:17
Библиотека кодирования : libebml v0.7.9 + libmatroska v0.8.1
Видео
Идентификатор : 1
Формат : AVC
Формат/Информация : Advanced Video Codec
Профиль формата : High@L4.1
Параметр CABAC формата : Да
Параметр ReFrames формата : 3 кадры
Параметры GOP формата : M=1, N=25
Идентификатор кодека : V_MPEG4/ISO/AVC
Продолжительность : 59 м.
Битрейт : 12,2 Мбит/сек
Ширина : 1920 пикс.
Высота : 1080 пикс.
Соотношение сторон : 16:9
Частота кадров : 25,000 кадр/сек
Цветовое пространство : YUV
Подвыборка цветности : 4:2:0
Битовая глубина : 8 бит
Тип развёртки : Прогрессивная
Бит/(Пиксели*Кадры) : 0.236
Размер потока : 5,05 Гбайт (91%)
Заголовок : HDCLUB
Библиотека кодирования : x264 core 114 r1924 08d04a4
Настройки программы : cabac=1 / ref=4 / deblock=1:-3:-3 / analyse=0x3:0x113 / me=umh / subme=9 / psy=1 / psy_rd=1.10:0.10 / mixed_ref=1 / me_range=32 / chroma_me=1 / trellis=2 / 8x8dct=1 / cqm=0 / deadzone=21,11 / fast_pskip=0 / chroma_qp_offset=-2 / threads=6 / sliced_threads=0 / nr=0 / decimate=0 / interlaced=0 / constrained_intra=0 / bframes=8 / b_pyramid=1 / b_adapt=2 / b_bias=0 / direct=1 / weightb=1 / open_gop=0 / weightp=2 / keyint=250 / keyint_min=25 / scenecut=40 / intra_refresh=0 / rc=crf / mbtree=0 / crf=18.0 / qcomp=0.60 / qpmin=10 / qpmax=51 / qpstep=4 / ip_ratio=1.40 / pb_ratio=1.30 / aq=1:0.75
Язык : English
Аудио #1
Идентификатор : 2
Формат : AC-3
Формат/Информация : Audio Coding 3
Расширение режима : CM (complete main)
Идентификатор кодека : A_AC3
Продолжительность : 59 м.
Вид битрейта : Постоянный
Битрейт : 448 Кбит/сек
Канал(ы) : 2 канала(ов)
Расположение каналов : Front: L R
Частота : 48,0 КГц
Битовая глубина : 16 бит
Метод сжатия : С потерями
Размер потока : 189 Мбайт (3%)
Заголовок : Одноголосый закадровый,"Омикрон"
Язык : Russian
Аудио #2
Идентификатор : 3
Формат : AC-3
Формат/Информация : Audio Coding 3
Расширение режима : CM (complete main)
Идентификатор кодека : A_AC3
Продолжительность : 59 м.
Вид битрейта : Постоянный
Битрейт : 448 Кбит/сек
Канал(ы) : 2 канала(ов)
Расположение каналов : Front: L R
Частота : 48,0 КГц
Битовая глубина : 16 бит
Метод сжатия : С потерями
Размер потока : 189 Мбайт (3%)
Язык : English
Общее
Уникальный идентификатор : 175617888023393961645939818458148706885 (0x841EC661E7FC0A2FBAD01832FDE31A45)
Полное имя : D:\Downloads\Wonders.of.the.Universe.2011.1080p\Episode.2.Wonders.of.the.Universe.2011.1080p.mkv
Формат : Matroska
Размер файла : 7,76 Гбайт
Продолжительность : 58 м.
Общий поток : 19,0 Мбит/сек
Название фильма : HDCLUB
Дата кодирования : UTC 2011-07-09 23:06:10
Программа кодирования : mkvmerge v3.2.0 ('Beginnings') built on Feb 12 2010 16:46:17
Библиотека кодирования : libebml v0.7.9 + libmatroska v0.8.1
Видео
Идентификатор : 1
Формат : AVC
Формат/Информация : Advanced Video Codec
Профиль формата : High@L4.1
Параметр CABAC формата : Да
Параметр ReFrames формата : 3 кадры
Параметры GOP формата : M=1, N=25
Идентификатор кодека : V_MPEG4/ISO/AVC
Продолжительность : 58 м.
Битрейт : 17,7 Мбит/сек
Ширина : 1920 пикс.
Высота : 1080 пикс.
Соотношение сторон : 16:9
Частота кадров : 25,000 кадр/сек
Цветовое пространство : YUV
Подвыборка цветности : 4:2:0
Битовая глубина : 8 бит
Тип развёртки : Прогрессивная
Бит/(Пиксели*Кадры) : 0.341
Размер потока : 7,24 Гбайт (93%)
Заголовок : HDCLUB
Библиотека кодирования : x264 core 114 r1924 08d04a4
Настройки программы : cabac=1 / ref=4 / deblock=1:-3:-3 / analyse=0x3:0x113 / me=umh / subme=9 / psy=1 / psy_rd=1.10:0.10 / mixed_ref=1 / me_range=32 / chroma_me=1 / trellis=2 / 8x8dct=1 / cqm=0 / deadzone=21,11 / fast_pskip=0 / chroma_qp_offset=-2 / threads=6 / sliced_threads=0 / nr=0 / decimate=0 / interlaced=0 / constrained_intra=0 / bframes=8 / b_pyramid=1 / b_adapt=2 / b_bias=0 / direct=1 / weightb=1 / open_gop=0 / weightp=2 / keyint=250 / keyint_min=25 / scenecut=40 / intra_refresh=0 / rc=crf / mbtree=0 / crf=18.0 / qcomp=0.60 / qpmin=10 / qpmax=51 / qpstep=4 / ip_ratio=1.40 / pb_ratio=1.30 / aq=1:0.75
Язык : English
Аудио #1
Идентификатор : 2
Формат : AC-3
Формат/Информация : Audio Coding 3
Расширение режима : CM (complete main)
Идентификатор кодека : A_AC3
Продолжительность : 58 м.
Вид битрейта : Постоянный
Битрейт : 448 Кбит/сек
Канал(ы) : 2 канала(ов)
Расположение каналов : Front: L R
Частота : 48,0 КГц
Битовая глубина : 16 бит
Метод сжатия : С потерями
Размер потока : 188 Мбайт (2%)
Заголовок : Одноголосый закадровый,"Омикрон"
Язык : Russian
Аудио #2
Идентификатор : 3
Формат : AC-3
Формат/Информация : Audio Coding 3
Расширение режима : CM (complete main)
Идентификатор кодека : A_AC3
Продолжительность : 58 м.
Вид битрейта : Постоянный
Битрейт : 448 Кбит/сек
Канал(ы) : 2 канала(ов)
Расположение каналов : Front: L R
Частота : 48,0 КГц
Битовая глубина : 16 бит
Метод сжатия : С потерями
Размер потока : 188 Мбайт (2%)
Язык : English
Общее
Уникальный идентификатор : 179598617261444664887865706720600348964 (0x871D6F7CA0FE914F9051D2BB67895924)
Полное имя : D:\Downloads\Wonders.of.the.Universe.2011.1080p\Episode.3.Wonders.of.the.Universe.2011.1080p.mkv
Формат : Matroska
Размер файла : 6,02 Гбайт
Продолжительность : 58 м.
Общий поток : 14,7 Мбит/сек
Название фильма : HDCLUB
Дата кодирования : UTC 2011-07-09 23:15:09
Программа кодирования : mkvmerge v3.2.0 ('Beginnings') built on Feb 12 2010 16:46:17
Библиотека кодирования : libebml v0.7.9 + libmatroska v0.8.1
Видео
Идентификатор : 1
Формат : AVC
Формат/Информация : Advanced Video Codec
Профиль формата : High@L4.1
Параметр CABAC формата : Да
Параметр ReFrames формата : 3 кадры
Параметры GOP формата : M=1, N=25
Идентификатор кодека : V_MPEG4/ISO/AVC
Продолжительность : 58 м.
Битрейт : 13,5 Мбит/сек
Ширина : 1920 пикс.
Высота : 1080 пикс.
Соотношение сторон : 16:9
Частота кадров : 25,000 кадр/сек
Цветовое пространство : YUV
Подвыборка цветности : 4:2:0
Битовая глубина : 8 бит
Тип развёртки : Прогрессивная
Бит/(Пиксели*Кадры) : 0.260
Размер потока : 5,53 Гбайт (92%)
Заголовок : HDCLUB
Библиотека кодирования : x264 core 114 r1924 08d04a4
Настройки программы : cabac=1 / ref=4 / deblock=1:-3:-3 / analyse=0x3:0x113 / me=umh / subme=9 / psy=1 / psy_rd=1.10:0.10 / mixed_ref=1 / me_range=32 / chroma_me=1 / trellis=2 / 8x8dct=1 / cqm=0 / deadzone=21,11 / fast_pskip=0 / chroma_qp_offset=-2 / threads=6 / sliced_threads=0 / nr=0 / decimate=0 / interlaced=0 / constrained_intra=0 / bframes=8 / b_pyramid=1 / b_adapt=2 / b_bias=0 / direct=1 / weightb=1 / open_gop=0 / weightp=2 / keyint=250 / keyint_min=25 / scenecut=40 / intra_refresh=0 / rc=crf / mbtree=0 / crf=18.3 / qcomp=0.60 / qpmin=10 / qpmax=51 / qpstep=4 / ip_ratio=1.40 / pb_ratio=1.30 / aq=1:0.75
Язык : English
Аудио #1
Идентификатор : 2
Формат : AC-3
Формат/Информация : Audio Coding 3
Расширение режима : CM (complete main)
Идентификатор кодека : A_AC3
Продолжительность : 58 м.
Вид битрейта : Постоянный
Битрейт : 448 Кбит/сек
Канал(ы) : 2 канала(ов)
Расположение каналов : Front: L R
Частота : 48,0 КГц
Битовая глубина : 16 бит
Метод сжатия : С потерями
Размер потока : 188 Мбайт (3%)
Заголовок : Одноголосый закадровый,"Омикрон"
Язык : Russian
Аудио #2
Идентификатор : 3
Формат : AC-3
Формат/Информация : Audio Coding 3
Расширение режима : CM (complete main)
Идентификатор кодека : A_AC3
Продолжительность : 58 м.
Вид битрейта : Постоянный
Битрейт : 448 Кбит/сек
Канал(ы) : 2 канала(ов)
Расположение каналов : Front: L R
Частота : 48,0 КГц
Битовая глубина : 16 бит
Метод сжатия : С потерями
Размер потока : 188 Мбайт (3%)
Язык : English
Общее
Уникальный идентификатор : 214374348403239754203567458311429368462 (0xA146FF6899C807B5930349B8DC232A8E)
Полное имя : D:\Downloads\Wonders.of.the.Universe.2011.1080p\Episode.4.Wonders.of.the.Universe.2011.1080p.mkv
Формат : Matroska
Размер файла : 5,67 Гбайт
Продолжительность : 58 м.
Общий поток : 14,0 Мбит/сек
Название фильма : HDCLUB
Дата кодирования : UTC 2011-07-10 10:13:22
Программа кодирования : mkvmerge v3.2.0 ('Beginnings') built on Feb 12 2010 16:46:17
Библиотека кодирования : libebml v0.7.9 + libmatroska v0.8.1
Видео
Идентификатор : 1
Формат : AVC
Формат/Информация : Advanced Video Codec
Профиль формата : High@L4.1
Параметр CABAC формата : Да
Параметр ReFrames формата : 3 кадры
Параметры GOP формата : M=1, N=25
Идентификатор кодека : V_MPEG4/ISO/AVC
Продолжительность : 58 м.
Битрейт : 12,8 Мбит/сек
Ширина : 1920 пикс.
Высота : 1080 пикс.
Соотношение сторон : 16:9
Частота кадров : 25,000 кадр/сек
Цветовое пространство : YUV
Подвыборка цветности : 4:2:0
Битовая глубина : 8 бит
Тип развёртки : Прогрессивная
Бит/(Пиксели*Кадры) : 0.247
Размер потока : 5,20 Гбайт (92%)
Заголовок : HDCLUB
Библиотека кодирования : x264 core 114 r1924 08d04a4
Настройки программы : cabac=1 / ref=4 / deblock=1:-3:-3 / analyse=0x3:0x113 / me=umh / subme=9 / psy=1 / psy_rd=1.10:0.10 / mixed_ref=1 / me_range=32 / chroma_me=1 / trellis=2 / 8x8dct=1 / cqm=0 / deadzone=21,11 / fast_pskip=0 / chroma_qp_offset=-2 / threads=6 / sliced_threads=0 / nr=0 / decimate=0 / interlaced=0 / constrained_intra=0 / bframes=8 / b_pyramid=1 / b_adapt=2 / b_bias=0 / direct=1 / weightb=1 / open_gop=0 / weightp=2 / keyint=250 / keyint_min=25 / scenecut=40 / intra_refresh=0 / rc=crf / mbtree=0 / crf=18.2 / qcomp=0.60 / qpmin=10 / qpmax=51 / qpstep=4 / ip_ratio=1.40 / pb_ratio=1.30 / aq=1:0.75
Язык : English
Аудио #1
Идентификатор : 2
Формат : AC-3
Формат/Информация : Audio Coding 3
Расширение режима : CM (complete main)
Идентификатор кодека : A_AC3
Продолжительность : 58 м.
Вид битрейта : Постоянный
Битрейт : 448 Кбит/сек
Канал(ы) : 2 канала(ов)
Расположение каналов : Front: L R
Частота : 48,0 КГц
Битовая глубина : 16 бит
Метод сжатия : С потерями
Размер потока : 186 Мбайт (3%)
Заголовок : Одноголосый закадровый,"Омикрон"
Язык : Russian
Аудио #2
Идентификатор : 3
Формат : AC-3
Формат/Информация : Audio Coding 3
Расширение режима : CM (complete main)
Идентификатор кодека : A_AC3
Продолжительность : 58 м.
Вид битрейта : Постоянный
Битрейт : 448 Кбит/сек
Канал(ы) : 2 канала(ов)
Расположение каналов : Front: L R
Частота : 48,0 КГц
Битовая глубина : 16 бит
Метод сжатия : С потерями
Размер потока : 186 Мбайт (3%)
Язык : English
pb.wtf



Скачать Чудеса Вселенной через торрент http://i22.fastpic.ru/big/2011/0605/33/cf767bc488987778c11858b97a5cce33.gif Скачать фильм Чудеса Вселенной через торрент бесплантно в хорошем качестве Описание:Кто мы? Почему мы здесь? Откуда мы пришли? Это самые фундаментальные и извечные вопросы которые мы можем задать. И это ... 5 10 11
Info! Золотая раздача, скачанное не засчитывается.
Торрент: Зарегистрирован [2012-07-14 18:06] · скачан: 168 раз
Статус: √ проверено
Размер: 24.98 GB
Как cкачать? Как скачать Чудеса Вселенной через торрент | UTorrent

% Раздел Тема Автор DL S | L
Научно-популярные фильмы [ 31.32 GB ] Вселенная: Семь чудес Солнечной системы 3D / Universe: 7 Wonders of The Solar System 3D Blu-Ray [2010 Документальный 1080p] Anonymous Скачать
1 | 0
BBC [ 27.23 GB ] Чудеса Вселенной / Wonders of the Universe [2011 документальный BDRip 1080p] VO msltel Скачать
1 | 0
BBC [ 10.66 GB ] Чудеса Вселенной / Wonders of the Universe [2011 документальный BDRip 720p] VO msltel Скачать
1 | 0
BBC [ 6.85 GB ] Чудеса Вселенной / Wonders of the Universe [2011 документальный BDRip AVC] VO msltel Скачать
1 | 0
Документальные фильмы 3D [ 4.53 GB ] Вселенная: Семь чудес Солнечной системы в 3Д / The Universe: 7 Wonders of The Solar System 3D [2010 документальный космос BDrip-AVC] Half SideBySide / Горизонтальная анаморфная стереопара oartemka178 Скачать
1 | 0
Научно-популярные фильмы [ 2.55 GB ] Вселенная: 7 чудес Солнечной системы / Universe: 7 Wonders of the Solar System [2010 документальный BDRip ] ~Relizer~ Скачать
1 | 0
Документальные фильмы и телепередачи [ 679 MB ] Вселенная. Семь чудес Солнечной системы / History. The Universe. 7 Wonders of The Solar System [2010 документальный научно-познавательный космос HDRip] paul08 Скачать
1 | 0

28-11-2019 20:33  

Отключить всю рекламу на сайте

    Дорогой пользователь! Огромная просьба, поблагодарите релизера, оцените раздачу и оставьте свои комментарий, если Вы скачали Чудеса Вселенной через торрент бесплатно! Внесите свою лепту в развитие PiratBit!
    Комментировать посты могут только пользователи прошедшие не сложную регистрацию
    Показать сообщения:    

    Чудеса Вселенной через торрент
    Скачать бесплатно Чудеса Вселенной
    Чудеса Вселенной скачать торрент
    Чудеса Вселенной смотреть онлайн
    Cкачать фильм Чудеса Вселенной бесплатно
    Чудеса Вселенной скачать торрент в хорошем качестве
    Чудеса Вселенной смотреть онлайн бесплатно в хорошем качестве


    Вы не можете начинать темы
    Вы не можете отвечать на сообщения
    Вы не можете редактировать свои сообщения
    Вы не можете удалять свои сообщения
    Вы не можете голосовать в опросах
    Вы не можете прикреплять файлы к сообщениям
    Вы можете скачивать файлы