2 сезон

iTunes

1 сезон

1

iTunes

iTunes

iTunes

1 сезон

RePack

30

ИГРА 18+

pack

ВАЖНО

!!Акция!!

Alien_RageХит недели

RePack

MK11
pack

Забери бонус

RePack

jed

!!Акция!!

Alien_Rage

RePack

fifa19

RePack

Assassins Creed: Odyssey

RePack

NEED FOR SPEED™ PAYBACK

4 сезон

9 сезон

Бесстыжие 9 сезон

Все сериалы

все сериалы на PB.wtf

RePack

FAR CRY 5
  

Anal Fanatic 4 / Анальные Фанатки 4 (Grazer, Elegant Angel) [2012 г., Gonzo, Anal, WEB-DL] (Sandra Romain, Aletta Ocean, Aleska Diamond, Abbie Cat, Ivana Sugar) [1080p] pb.wtf

Anal Fanatic 4 через торрент pb.wtf

Размер: 9.37 GB | Добавлен: 8 лет 3 мес. назад | Торрент скачан:324 раза
Скачать  

15-07-2012 09:19 Anal Fanatic 4 Скачать торрент  

Анальные Фанатки 4 / Anal Fanatic 4


Студия: Elegant Angel
Год выпуска: 2012
Страна: U.S.A.
Жанр: Gonzo, Anal
Продолжительность: 02:52:12
Перевод: Оригинал
Тип релиза: Лицензия

В ролях: Sandra Romain, Aletta Ocean, Aleska Diamond, Abbie Cat, Ivana Sugar

Описание: Grazer is back with "Anal Fanatic 4" a sensual and hardcore voyage into the joys of anal sex. Featuring lots of toy play, an intense D.P. with
Sandra Romain , while also including an all star cast: Abbie Cat, Aletta Ocean, Aleska Diamond, and Ivana Sugar. Do not miss!

Доп. информация: http://www.elegantangel.com/dvdfocus.php?dvdId=14227

Качество: 1080p WEB-DL
Формат: MP4
Видео кодек: H.264
Аудио кодек: AAC
Видео: MPEG4 Video (H264) 1920x1080 29.97fps 8000kbps
Аудио#1: AAC 44100Hz stereo 128kbps

General
Complete name : G:\Anal Fanatic 4 [1080p]\V84436_full_h264_8000.mp4
Format : MPEG-4
Format profile : Base Media
Codec ID : isom
File size : 1.74 GiB
Duration : 30mn 42s
Overall bit rate mode : Variable
Overall bit rate : 8 094 Kbps
Writing application : Lavf52.93.0

Video
ID : 1
Format : AVC
Format/Info : Advanced Video Codec
Format profile : High@L4.0
Format settings, CABAC : Yes
Format settings, ReFrames : 4 frames
Codec ID : avc1
Codec ID/Info : Advanced Video Coding
Duration : 30mn 42s
Bit rate : 8 000 Kbps
Width : 1 920 pixels
Height : 1 080 pixels
Display aspect ratio : 16:9
Frame rate mode : Constant
Frame rate : 29.970 fps
Color space : YUV
Chroma subsampling : 4:2:0
Bit depth : 8 bits
Scan type : Progressive
Bits/(Pixel*Frame) : 0.129
Stream size : 1.71 GiB (99%)
Writing library : x264 core 115
Encoding settings : cabac=1 / ref=3 / deblock=1:0:0 / analyse=0x3:0x113 / me=hex / subme=7 / psy=1 / psy_rd=1.00:0.00 / mixed_ref=1 / me_range=16 / chroma_me=1 / trellis=1 / 8x8dct=1 / cqm=0 / deadzone=21,11 / fast_pskip=1 / chroma_qp_offset=-2 / threads=16 / sliced_threads=0 / nr=0 / decimate=1 / interlaced=0 / bluray_compat=0 / constrained_intra=0 / bframes=3 / b_pyramid=2 / b_adapt=1 / b_bias=0 / direct=1 / weightb=1 / open_gop=0 / weightp=2 / keyint=250 / keyint_min=25 / scenecut=40 / intra_refresh=0 / rc_lookahead=40 / rc=abr / mbtree=1 / bitrate=8000 / ratetol=1.0 / qcomp=0.60 / qpmin=10 / qpmax=51 / qpstep=4 / ip_ratio=1.41 / aq=1:1.00
Language : English
Tagged date : UTC 2012-06-14 19:37:30

Audio
ID : 2
Format : AAC
Format/Info : Advanced Audio Codec
Format profile : LC
Codec ID : 40
Duration : 30mn 42s
Bit rate mode : Variable
Bit rate : 107 Kbps
Channel(s) : 2 channels
Channel positions : Front: L R
Sampling rate : 44.1 KHz
Compression mode : Lossy
Delay relative to video : -2s 2ms
Stream size : 23.5 MiB (1%)
Language : English
Tagged date : UTC 2012-06-14 19:37:30

Качество: 1080p WEB-DL
Формат: MP4
Видео кодек: H.264
Аудио кодек: AAC
Видео: MPEG4 Video (H264) 1920x1080 29.97fps 8000kbps
Аудио#1: AAC 44100Hz stereo 128kbps
pb.wtf



pack Скачать Anal Fanatic 4 через торрент http://i43.fastpic.ru/big/2012/0715/0f/a15c7c6fdb82e5286c3fe7c92a1c8f0f.jpeg Скачать фильм Anal Fanatic 4 через торрент бесплантно в хорошем качестве Описание: Grazer is back with "Anal Fanatic 4" a sensual and hardcore voyage into the joys of anal sex. Featuring lots of toy play, an ... 10 10 4
Info! Золотая раздача, скачанное не засчитывается.
Торрент: Зарегистрирован [2012-07-15 09:19] · скачан: 324 раз
Статус: √ проверено
Размер: 9.37 GB
Как cкачать? Как скачать Anal Fanatic 4 через торрент | qTorrent

% Раздел Тема Автор DL S | L
Сцены из фильмов [ 388 MB ] Aletta Ocean - Анальные Фанатки 4 / Anal Fanatic 4 [2012 Anal Gonzo Toys Oral Big Tits PornStars DVDRip] sheker187 Скачать
1 | 0
Гонзо [ 1.36 GB ] Анальные Фанатки 4 / Anal Fanatic 4 [2012 Gonzo Anal DVDRip] SKAV Скачать
1 | 0

28-11-2019 20:33  

Отключить всю рекламу на сайте

    Дорогой пользователь! Огромная просьба, поблагодарите релизера, оцените раздачу и оставьте свои комментарий, если Вы скачали Anal Fanatic 4 через торрент бесплатно! Внесите свою лепту в развитие PiratBit!
    Комментировать посты могут только пользователи прошедшие не сложную регистрацию
    Показать сообщения:    

    Anal Fanatic 4 через торрент
    Скачать бесплатно Anal Fanatic 4
    Anal Fanatic 4 скачать торрент
    Anal Fanatic 4 смотреть онлайн
    Cкачать фильм Anal Fanatic 4 бесплатно
    Anal Fanatic 4 скачать торрент в хорошем качестве
    Anal Fanatic 4 смотреть онлайн бесплатно в хорошем качестве


    Вы не можете начинать темы
    Вы не можете отвечать на сообщения
    Вы не можете редактировать свои сообщения
    Вы не можете удалять свои сообщения
    Вы не можете голосовать в опросах
    Вы не можете прикреплять файлы к сообщениям
    Вы можете скачивать файлы