1 сезон

1 сезон

iTunes

1

КиноПоиск HD

Кинопоиск HD

iTunes

13

1 сезон

RePack

30

Новинка

ВАЖНО

ИГРА 18+

pack

RePack

MK11
pack

Легкие деньги

RePack

jed

RePack

fifa19

RePack

RDR2

RePack

NEED FOR SPEED™ PAYBACK

4 сезон

9 сезон

Бесстыжие 9 сезон

Все сериалы

все сериалы на PB.wtf

RePack

FAR CRY 5
  
Magnet ссылка

Бессонница / Insomnia (Кристофер Нолан) [2002 г., триллер, драма, криминал, детектив, HDRip, DUB (лицензия)] pb.wtf

Бессонница через торрент pb.wtf

Размер: 1.46 GB | Добавлен: 8 лет 9 мес. назад | Торрент скачан:151 раз
Скачать  

15-07-2012 09:27 Бессонница Скачать торрент  

Бессонница / Insomnia

Год выпуска: 2002
Страна: США, Канада
Жанр: триллер, драма, криминал, детектив
Продолжительность: 01:58:13
Перевод: Дубляж (Лицензия)

Режиссер: Кристофер Нолан
Продюссер: Бродерик Джонсон, Пол Юнгер Уитт, Эндрю А. Косов
Сценарий: Хиллари Сайц, Николай Фробениус, Эрик Шёлдбьерг

Бюджет: $46 000 000
Премьера в мире: 3 мая 2002

R лицам до 17 лет обязательно присутствие взрослого


В ролях: Аль Пачино, Робин Уильямс, Хилари Суэнк, Мартин Донован, Оливер «Оли» Земен, Пол Дули, Никки Кэтт, Ларри Холден, Джей Бразо, Лорни Кардинал

Описание: Опытный детектив полиции Лос-Анджелеса Уилл Дормер вместе со своим напарником направлен в маленький городок на Аляске, чтобы расследовать убийство семнадцатилетней девушки. Помощником Дормера также становится проницательный детектив местной полиции Элли Бур.

Расследование продвигается, и скоро у полицейских появляется подозреваемый. Это Уолтер Финч — человек романтического склада характера, ведущий уединенный образ жизни. Напарник Дормера погибает во время одного из полицейских дежурств на пустынном скалистом берегу.

Эта случайная смерть лишает Дормера сна. Все больше запутываясь в сетях махинаций Финча, Дормер рискует потерять не только сон этими белыми летними ночами…

Качество: HDRip
Формат: AVI
Видео кодек: XviD
Аудио кодек: AC3
Видео: 720x304 (2.37:1), 23.976 fps, XviD build 56 ~1370 kbps avg, 0.26 bit/pixel
Аудио#1: 48 kHz, AC3 Dolby Digital, 3/2 (L,C,R,l,r) + LFE ch, ~384 kbps








General
Complete name : D:\Фильмы\Ост\Insomnia.2002.HDRip.avi
Format : AVI
Format/Info : Audio Video Interleave
File size : 1.46 GiB
Duration : 1h 58mn
Overall bit rate : 1 764 Kbps
Director : DaVinci
Writing application : VirtualDubMod 1.5.10.2 (build 2540/release)
Copyright : http://rutracker.org/

Video
ID : 0
Format : MPEG-4 Visual
Format profile : Advanced Simple@L5
Format settings, BVOP : 1
Format settings, QPel : No
Format settings, GMC : No warppoints
Format settings, Matrix : Custom
Codec ID : XVID
Codec ID/Hint : XviD
Duration : 1h 58mn
Bit rate : 1 371 Kbps
Width : 720 pixels
Height : 304 pixels
Display aspect ratio : 2.35:1
Frame rate : 23.976 fps
Color space : YUV
Chroma subsampling : 4:2:0
Bit depth : 8 bits
Scan type : Progressive
Compression mode : Lossy
Bits/(Pixel*Frame) : 0.261
Stream size : 1.13 GiB (78%)
Writing library : XviD 56

Audio
ID : 1
Format : AC-3
Format/Info : Audio Coding 3
Mode extension : CM (complete main)
Codec ID : 2000
Duration : 1h 58mn
Bit rate mode : Constant
Bit rate : 384 Kbps
Channel(s) : 6 channels
Channel positions : Front: L C R, Side: L R, LFE
Sampling rate : 48.0 KHz
Bit depth : 16 bits
Compression mode : Lossy
Stream size : 325 MiB (22%)
Alignment : Split accross interleaves
Interleave, duration : 42 ms (1.00 video frame)
Interleave, preload duration : 500 ms

pb.wtf



Скачать Бессонница через торрент https://pic.kartinco.top/images/1/ueensif4ig.jpg Скачать фильм Бессонница через торрент бесплантно в хорошем качестве Описание: Опытный детектив полиции Лос-Анджелеса Уилл Дормер вместе со своим напарником направлен в маленький городок на Аляске, чтобы ... 9.8 10 5
Info! Золотая раздача, скачанное не засчитывается.
Торрент: Зарегистрирован [2012-07-15 09:27] · скачан: 151 раз
Статус: √ проверено
Размер: 1.46 GB
Как cкачать? Как скачать Бессонница через торрент | UTorrent

% Раздел Тема Автор DL S | L
Зарубежные сериалы [ 22.19 GB ] Бессонница / Insomnia / Сезон: 1 / Серии: 1-8 из 8 [2018 WEBRip 1080p] MVO [BaibaKo] bober100 Скачать
1 | 0
Зарубежные сериалы [ 4.83 GB ] Бессонница / Insomnia / Сезон: 1 / Серия 1-8 из 8 [2018 WEBRip] MVO [BaibaKo] GEKADOL Скачать
1 | 0
Фильмы 2001-2005 [ 1.45 GB ] Бессонница / Insomnia [2002 HDRip-AVC DUB ] Dean24 Скачать
1 | 0
Фильмы [HD 720p, 1080p] (Хороший звук DUB, MVO) [ 7.95 GB ] Бессонница / Insomnia [2002 BDRip 720p] DUB MVO AVO potroks Скачать
4 | 0
Фильмы [HD 720p, 1080p] (Хороший звук DUB, MVO) [ 11.12 GB ] Бессонница / Insomnia [1997 BDRip 1080p] MVO msltel Скачать
1 | 0
Фильмы [HD 720p, 1080p] (Хороший звук DUB, MVO) [ 4.58 GB ] Бессонница / Insomnia [1997 BDRip 720p] MVO msltel Скачать
1 | 0
Фильмы до 2000 г. [ 1.54 GB ] Бессонница / Insomnia [1997 BDRip] MVO msltel Скачать
1 | 0

28-11-2019 20:33  

Отключить всю рекламу на сайте

12-04-2014 18:06 Бессонница Скачать торрент  

Люди дайте скоростиpb.wtf



    Дорогой пользователь! Огромная просьба, поблагодарите релизера, оцените раздачу и оставьте свои комментарий, если Вы скачали Бессонница через торрент бесплатно! Внесите свою лепту в развитие PiratBit!
    Комментировать посты могут только пользователи прошедшие не сложную регистрацию
    Показать сообщения:    

    Бессонница через торрент
    Скачать бесплатно Бессонница
    Бессонница скачать торрент
    Бессонница смотреть онлайн
    Cкачать фильм Бессонница бесплатно
    Бессонница скачать торрент в хорошем качестве
    Бессонница смотреть онлайн бесплатно в хорошем качестве


    Вы не можете начинать темы
    Вы не можете отвечать на сообщения
    Вы не можете редактировать свои сообщения
    Вы не можете удалять свои сообщения
    Вы не можете голосовать в опросах
    Вы не можете прикреплять файлы к сообщениям
    Вы можете скачивать файлы