Ссылка на приватное зеркало нашего сайта всего за 1$. Внимание количество ограничено!!!

2 сезон

iTunes

1 сезон

1

iTunes

iTunes

iTunes

1 сезон

RePack

30

ИГРА 18+

pack

ВАЖНО

!!Акция!!

Alien_RageХит недели

RePack

MK11
pack

Забери бонус

RePack

jed

!!Акция!!

Alien_Rage

RePack

fifa19

RePack

Assassins Creed: Odyssey

RePack

NEED FOR SPEED™ PAYBACK

4 сезон

9 сезон

Бесстыжие 9 сезон

Все сериалы

все сериалы на PB.wtf

RePack

FAR CRY 5
  

Эмили Жоли / Emilie jolie (Филипп Шатель, Френсис Нилсен) [2011 г., мультфильм, HDRip, DUB + Оригинал] pb.wtf

Скачать  

16-07-2012 08:57 Эмили Жоли Скачать торрент  

Эмили Жоли / Emilie jolie

Год выпуска: 2011
Страна: Франция
Жанр: мультфильм
Продолжительность: 01:15:02
Перевод: Дубляж + Оригинал

Режиссер: Филипп Шатель, Френсис Нилсен
Продюссер: Филипп Алессандри, Малика Брахми, Ingrid Libercier

Бюджет: €4 000 000
Премьера в мире: 28 августа 2011



В ролях: Камилль Тиммерман, Франсуа-Ксавье Демезон, Эли Семун

Описание: Эмили — маленькая девочка с голубыми глазами, светлыми волосами и розовыми щечками. Завтра ее первый день в новой школе и она переживает. Сможет ли она завести друзей на новом месте? И главное, сможет ли папа отвлечься от работы, чтобы отвести ее в школу в этот важный день?
Мама Эмили находит среди коробок с вещами книжку, которую сама читала в детстве, и дает ее дочке в надежде, что та отвлечется от хмурых мыслей. В книжке рассказывается история синего крольчонка по имени Жильбер, который из-за своего чрезмерного аппетита попадает в ловушку злой колдуньи.

Качество: HDRip
Формат: AVI
Видео кодек: XviD
Аудио кодек: AC3
Видео: 720x400 (16:9), 24 fps, 1 962 Kbps (0.284 bit/pixel)
Аудио#1: Русский 48,0 kHz, 2 ch, 192.00 kbps
Аудио#2: Французский 48 kHz, 6 ch , 448 Кбит/с
Субтитры: отсутствуют





Format : AVI
Format/Info : Audio Video Interleave
File size : 1.37 GiB
Duration : 1h 15mn
Overall bit rate : 2 617 Kbps
Movie name : Emili.Zholi.2011.D.HDRip
Director : IRONCLUB
Writing application : VirtualDubMod 1.5.10.3 (build 2550/release)
Original source form/Name : Cartoon

Video
ID : 0
Format : MPEG-4 Visual
Format profile : Advanced Simple@L5
Format settings, BVOP : 2
Format settings, QPel : No
Format settings, GMC : No warppoints
Format settings, Matrix : Custom
Codec ID : XVID
Codec ID/Hint : XviD
Duration : 1h 15mn
Bit rate : 1 962 Kbps
Width : 720 pixels
Height : 400 pixels
Display aspect ratio : 16:9
Frame rate : 24.000 fps
Color space : YUV
Chroma subsampling : 4:2:0
Bit depth : 8 bits
Scan type : Progressive
Compression mode : Lossy
Bits/(Pixel*Frame) : 0.284
Stream size : 1.03 GiB (75%)
Writing library : XviD 1.2.1 (UTC 2008-12-04)

Audio #1
ID : 1
Format : AC-3
Format/Info : Audio Coding 3
Mode extension : CM (complete main)
Codec ID : 2000
Duration : 1h 15mn
Bit rate mode : Constant
Bit rate : 192 Kbps
Channel(s) : 2 channels
Channel positions : Front: L R
Sampling rate : 48.0 KHz
Bit depth : 16 bits
Compression mode : Lossy
Stream size : 103 MiB (7%)
Alignment : Split accross interleaves
Interleave, duration : 42 ms (1.00 video frame)
Interleave, preload duration : 500 ms

Audio #2
ID : 2
Format : AC-3
Format/Info : Audio Coding 3
Mode extension : CM (complete main)
Codec ID : 2000
Duration : 1h 15mn
Bit rate mode : Constant
Bit rate : 448 Kbps
Channel(s) : 6 channels
Channel positions : Front: L C R, Side: L R, LFE
Sampling rate : 48.0 KHz
Bit depth : 16 bits
Compression mode : Lossy
Stream size : 240 MiB (17%)
Alignment : Split accross interleaves
Interleave, duration : 42 ms (1.00 video frame)
Interleave, preload duration : 500 ms

pb.wtf



28-11-2019 20:33  

Отключить всю рекламу на сайте

    Дорогой пользователь! Огромная просьба, поблагодарите релизера, оцените раздачу и оставьте свои комментарий, если Вы скачали Эмили Жоли через торрент бесплатно! Внесите свою лепту в развитие PiratBit!
    Комментировать посты могут только пользователи прошедшие не сложную регистрацию
    Показать сообщения:    

    Эмили Жоли через торрент
    Скачать бесплатно Эмили Жоли
    Эмили Жоли скачать торрент
    Эмили Жоли смотреть онлайн
    Cкачать фильм Эмили Жоли бесплатно
    Эмили Жоли скачать торрент в хорошем качестве
    Эмили Жоли смотреть онлайн бесплатно в хорошем качестве


    Вы не можете начинать темы
    Вы не можете отвечать на сообщения
    Вы не можете редактировать свои сообщения
    Вы не можете удалять свои сообщения
    Вы не можете голосовать в опросах
    Вы не можете прикреплять файлы к сообщениям
    Вы можете скачивать файлы