Ссылка на приватное зеркало нашего сайта всего за 1$. Внимание количество ограничено!!!

2 сезон

iTunes

1 сезон

1

2 сезон

2 сезон

iTunes

1 сезон

RePack

30

Ultimate

ВАЖНО

ИГРА 18+

pack

RePack

MK11
pack

Забери бонус

RePack

jed

!!Акция!!

Alien_Rage

RePack

fifa19

RePack

Assassins Creed: Odyssey

RePack

NEED FOR SPEED™ PAYBACK

4 сезон

9 сезон

Бесстыжие 9 сезон

Все сериалы

все сериалы на PB.wtf

RePack

FAR CRY 5
  

Напролом / Lockout (Джеймс Мэтер, Стивен Ст. Леджер) [2012 г., фантастика, боевик, триллер, BD-Remux, DUB (лицензия)] pb.wtf

Напролом через торрент pb.wtf

Размер: 20.97 GB | Добавлен: 8 лет 4 мес. назад | Торрент скачан:457 раз
Скачать  

18-07-2012 08:01 Напролом Скачать торрент  

Напролом / Lockout

Год выпуска: 2012
Страна: Франция
Жанр: фантастика, боевик, триллер
Продолжительность: 01:35:20
Перевод: Дубляж [Лицензия]
  • Режиссер: Джеймс Мэтер, Стивен Ст. Леджер
  • Продюссер: Марк Либерт, Лейла Смит, Люк Бессон
  • Сценарий: Стивен Ст. Леджер, Джеймс Мэтер, Люк Бессон
  • Бюджет: $20 000 000


В ролях: Гай Пирс, Мэгги Грэйс, Винсент Риган, Джозеф Гилган, Ленни Джеймс, Петер Стормаре, Джеки Идо, Тим Плестер, Энн-Соленн Хатте
Описание: Орбитальная станция MS1 — крупнейшая космическая тюрьма, где в анабиозе содержатся тысячи опасных преступников.
Ходят слухи, что над погруженными в искусственный сон узниками проводятся противозаконные эксперименты.
С расследованием на станцию отправлена комиссия во главе с Эмили Уорнок, дочерью президента США.
Неожиданно ситуация выходит из-под контроля, и вся станция оказывается захвачена уголовниками.
Спецагент Сноу, несправедливо обвиненный в государственной измене,
получает задание проникнуть в самую неприступную тюрьму во Вселенной и спасти Эмили.
Это его единственный шанс вернуть себе доброе имя и получить свободу.
  • Качество: BD-Remux
  • Формат: BDAV
  • Видео кодек: AVC
  • Аудио кодек: DTS
  • Видео: AVC, 1920x1080 (16:9), 23.976 fps, 27.9 Mbps (0.562 bit/pixel)
  • Аудио#1: DTS MA / Core, 48.0 KHz, 6 ch, 1 561 Kbps / 1 510 Kbps, VBR (English)
  • Аудио#2: DTS, 48.0 KHz, 6 ch, 755 Kbps, CBR (Russian)
  • Субтитры: Английские, Русские (Voronin)

Скриншоты

скриншот  скриншот  скриншот  скриншот  

Код:

Общее
Идентификатор                            : 1 (0x1)
Полное имя                               : E:\LOCKOUT_2012_BD-REMUX_HDCLUB\BDMV\STREAM\00000.m2ts
Формат                                   : BDAV
Формат/Информация                        : Blu-ray Video
Размер файла                             : 21,0 Гбайт
Продолжительность                        : 1 ч. 35 м.
Режим общего битрейта                    : Переменный
Общий поток                              : 31,5 Мбит/сек
Максимальный общий битрейт               : 35,5 Мбит/сек

Видео
Идентификатор                            : 4113 (0x1011)
Идентификатор меню                       : 1 (0x1)
Формат                                   : AVC
Формат/Информация                        : Advanced Video Codec
Профиль формата                          : High@L4.1
Параметр CABAC формата                   : Да
Параметр ReFrames формата                : 2 кадра
Идентификатор кодека                     : 27
Продолжительность                        : 1 ч. 35 м.
Вид битрейта                             : Переменный
Битрейт                                  : 27,9 Мбит/сек
Ширина                                   : 1920 пикселей
Высота                                   : 1080 пикселей
Соотношение сторон                       : 16:9
Частота кадров                           : 23,976 кадра/сек
Цветовое пространство                    : YUV
Субдискретизация насыщенности            : 4:2:0
Битовая глубина                          : 8 бит
Тип развёртки                            : Прогрессивная
Бит/(Пиксели*Кадры)                      : 0.562
Размер потока                            : 18,6 Гбайт (89%)

Аудио #1
Идентификатор                            : 4352 (0x1100)
Идентификатор меню                       : 1 (0x1)
Формат                                   : DTS
Формат/Информация                        : Digital Theater Systems
Профиль формата                          : MA / Core
Режим смешивания                         : Stream extension
Идентификатор кодека                     : 134
Продолжительность                        : 1 ч. 35 м.
Вид битрейта                             : Переменный
Битрейт                                  : 1561 Кбит/сек / 1510 Кбит/сек
Каналы                                   : 6 каналов
Расположение каналов                     : Front: L C R, Side: L R, LFE
Частота                                  : 48,0 КГц
Битовая глубина                          : 24 бит
Метод сжатия                             : Без потерь / Lossy
Язык                                     : English

Аудио #2
Идентификатор                            : 4353 (0x1101)
Идентификатор меню                       : 1 (0x1)
Формат                                   : DTS
Формат/Информация                        : Digital Theater Systems
Идентификатор кодека                     : 130
Продолжительность                        : 1 ч. 35 м.
Вид битрейта                             : Постоянный
Битрейт                                  : 755 Кбит/сек
Каналы                                   : 6 каналов
Расположение каналов                     : Front: L C R, Side: L R, LFE
Частота                                  : 48,0 КГц
Битовая глубина                          : 16 бит
Метод сжатия                             : С потерями
Размер потока                            : 514 Мбайт (2%)
Язык                                     : Russian

Текст #1
Идентификатор                            : 4608 (0x1200)
Идентификатор меню                       : 1 (0x1)
Формат                                   : PGS
Идентификатор кодека                     : 144
Язык                                     : Russian

Текст #2
Идентификатор                            : 4609 (0x1201)
Идентификатор меню                       : 1 (0x1)
Формат                                   : PGS
Идентификатор кодека                     : 144
Язык                                     : English

pb.wtf



Скачать Напролом через торрент http://pic.kartinco.top/images/1/ne2pwg41ag.png Скачать фильм Напролом через торрент бесплантно в хорошем качестве Описание: Орбитальная станция MS1 — крупнейшая космическая тюрьма, где в анабиозе содержатся тысячи опасных преступников.Ходят слухи, что ... 10 10 3
Info! Золотая раздача, скачанное не засчитывается.
Торрент: Зарегистрирован [2012-07-18 08:01] · скачан: 457 раз
Статус: √ проверено
Размер: 20.97 GB
Как cкачать? Как скачать Напролом через торрент | qTorrent

% Раздел Тема Автор DL S | L
Фильмы [HD 720p, 1080p] (Хороший звук DUB, MVO) [ 5.76 GB ] Напролом / Lockout [2012 BDRip 1080p / Расширенная версия] DUB Ворон Скачать
6 | 0
Фильмы 2012 [ 1.46 GB ] Напролом / Lockout [2012 BDRip] [UNRATED] DUB |лицензия| Mr. Freeman Скачать
1 | 0
Фильмы 2012 [ 699 MB ] Напролом / Lockout [2012 BDRip] [UNRATED] DUB |лицензия| |700 mb| Mr. Freeman Скачать
1 | 0
Фильмы 2012 [ 1.37 GB ] Напролом / Lockout [UNRATED] [2012 HDRip] лицензия inktorrent Скачать
1 | 0
Фильмы 2012 [ 1.46 GB ] Напролом / Lockout [2012 BDRip-AVC] [UNRATED] DUB |лицензия| Mr. Freeman Скачать
1 | 0
Фильмы (DVD фильмы) [ 6.84 GB ] Напролом / Lockout [2012 DVD9] [UNRATED] R5 voovaz Скачать
1 | 0
Фильмы [HD 720p, 1080p] (Хороший звук DUB, MVO) [ 4.57 GB ] Напролом / Lockout [UNRATED] [2012 BDRip 720p] лицензия inktorrent Скачать
1 | 0

28-11-2019 20:33  

Отключить всю рекламу на сайте

    Дорогой пользователь! Огромная просьба, поблагодарите релизера, оцените раздачу и оставьте свои комментарий, если Вы скачали Напролом через торрент бесплатно! Внесите свою лепту в развитие PiratBit!
    Комментировать посты могут только пользователи прошедшие не сложную регистрацию
    Показать сообщения:    

    Напролом через торрент
    Скачать бесплатно Напролом
    Напролом скачать торрент
    Напролом смотреть онлайн
    Cкачать фильм Напролом бесплатно
    Напролом скачать торрент в хорошем качестве
    Напролом смотреть онлайн бесплатно в хорошем качестве


    Вы не можете начинать темы
    Вы не можете отвечать на сообщения
    Вы не можете редактировать свои сообщения
    Вы не можете удалять свои сообщения
    Вы не можете голосовать в опросах
    Вы не можете прикреплять файлы к сообщениям
    Вы можете скачивать файлы