1 сезон

3 сезон

iTunes

1

Line

MVO

iTunes

13

1 сезон

RePack

30

Deluxe

pack

Лицензия

ВАЖНО

ИГРА 18+

pack

RePack

MK11

RePack

jed

RePack

fifa19

RePack

RDR2

RePack

NEED FOR SPEED™ PAYBACK

4 сезон

9 сезон

Бесстыжие 9 сезон

Все сериалы

все сериалы на PB.wtf

RePack

FAR CRY 5

Anonymous, доброй ночи, мы катастрофически не успеваем собрать деньги на оплату серверов, помогите нам пожалуйста 5,10,15р., для нас важна любая помощь . В качестве благодарности мы отключим Вам всю рекламу на сайте (укажите свой ник в строку Ваше имя)!

×
  
Magnet ссылка

Жутко громко и запредельно близко / Extremely Loud & Incredibly Close (Стивен Долдри) [2011 г., драма, детектив, приключения, DVD9, Профессиональный (многоголосый), лицензия)] pb.wtf

Жутко громко и запредельно близко через торрент pb.wtf

Размер: 6.45 GB | Добавлен: 9 лет назад | Торрент скачан:34 раза
Скачать  

18-07-2012 09:19 Жутко громко и запредельно близко Скачать торрент  

Жутко громко и запредельно близко / Extremely Loud & Incredibly Close

Год выпуска: 2011
Страна: США
Жанр: драма, детектив, приключения
Продолжительность:
Перевод: Профессиональный (многоголосый) [Лицензия]
  • Режиссер: Стивен Долдри
  • Продюссер: Скотт Рудин, Эли Буш, Селия Д. Костас
  • Сценарий: Эрик Рот, Джонатан Сафран Фоер
  • Композитор: Александр Деспла


В ролях: Том Хэнкс, Сандра Буллок, Томас Хорн, Макс фон Сюдов, Виола Дэвис, Джон Гудмен, Джеффри Райт, Зои Колдуэлл, Дэннис Хирн, Пол Клементовиц
Описание: Десятилетний Оскар теряет отца в день атаки на башни-близнецы в Нью-Йорке. По всему городу Оскар ищет информацию, которая должна привести его к разрешению загадки отца. На пути мальчику встретятся разные люди, но их всех объединяет страшная катастрофа, поэтому каждый пытается справиться с собственным горем.
  • Качество: DVD9
  • Формат: DVD Video
  • Видео кодек: MPEG 2
  • Аудио кодек: AC3
  • Видео: MPEG 2, 720x576 (16:9), 25.000 fps, 7 500 Kbps (0.561 bit/pixel)
  • Аудио#1: AC-3, 48.0 KHz, 6 ch, 384 Kbps, CBR (English)
  • Аудио#2: AC-3, 48.0 KHz, 6 ch, 384 Kbps, CBR (Polish)
  • Аудио#3: AC-3, 48.0 KHz, 6 ch, 384 Kbps, CBR (Russian)
  • Аудио#4: AC-3, 48.0 KHz, 2 ch, 192 Kbps, CBR (Turkish)
  • Аудио#5: AC-3, 48.0 KHz, 2 ch, 192 Kbps, CBR (English)
  • Субтитры: English, Bulgarian, Hrvatski, Estonian, Latvian, Lithuanian, Polish, Russian, Serbian, Slovenian, Turkish, Ukrainian


Скриншоты меню

скриншот  скриншот  скриншот  скриншот  

Скриншоты

скриншот  скриншот  скриншот  скриншот  

Код:

Title: Zhutko.gromko.i.zapredelno.blizko.2011.P.DVD.IRONCLUB
Size: 6.45 Gb ( 6 759 036,00 KBytes ) - DVD-9
Enabled regions: 1, 2, 3, 4, 5, 6, 7, 8

VTS_01 :
  Play Length: 02:04:11+00:00:00+00:07:31
  Video: PAL 16:9 (720x576) VBR, Auto Letterboxed
  Audio:
      English, AC3, 3/2 (L,C,R,SL,SR)+LFE ch, 384 kbps, Delay 0 mSec
      Polish, AC3, 3/2 (L,C,R,SL,SR)+LFE ch, 384 kbps, Delay 0 mSec
      Russian, AC3, 3/2 (L,C,R,SL,SR)+LFE ch, 384 kbps, Delay 0 mSec
      Turkish, AC3, 2/0 (L,R) ch, 192 kbps, Delay 0 mSec
      English,

  Subtitles:
      English
      Bulgarian
      Hrvatski
      Estonian
      Latvian
      Lithuanian
      Polish
      Russian
      Serbian
      Slovenian
      Turkish
      Ukrainian
      Russian
      Turkish

VTS_02 :
  Play Length: 00:00:10+00:00:12
  Video: PAL 16:9 (720x576) VBR, Auto Letterboxed
  Audio:
      Not specified, AC3, 3/2 (L,C,R,SL,SR)+LFE ch, 448 kbps, Delay 0 mSec

  Subtitles:
      Not specified

* Menus Information *

VIDEO_TS Menu
Video:
      PAL 16:9 (720x576) VBR
      Auto Pan&Scan
Language Unit :
      Title Menu

VTS_01 Menu
Video:
      PAL 16:9 (720x576) VBR
      Auto Pan&Scan
Audio:
      Not specified (Dolby AC3, 2 ch)
English Language Unit :
      Root Menu

VTS_02 Menu
Video:
      NTSC 4:3 (720x480) VBR
      Auto Pan&Scan, Auto Letterboxed
Language Unit :
      Root Menu


Код:

Общее
Полное имя                               : E:\Zhutko.gromko.i.zapredelno.blizko.2011.P.DVD.IRONCLUB\VIDEO_TS\VTS_01_1.VOB
Формат                                   : MPEG-PS
Размер файла                             : 1024 Мбайт
Продолжительность                        : 19 м.
Режим общего битрейта                    : Переменный
Общий поток                              : 7309 Кбит/сек

Видео
Идентификатор                            : 224 (0xE0)
Формат                                   : MPEG Video
Версия формата                           : Version 2
Профиль формата                          : Main@Main
Параметр BVOP формата                    : Да
Параметр матрицы формата                 : Выборочная
Параметр GOP формата                     : M=2, N=12
Продолжительность                        : 19 м.
Вид битрейта                             : Переменный
Битрейт                                  : 5819 Кбит/сек
Максимальный битрейт                     : 7500 Кбит/сек
Ширина                                   : 720 пикселей
Высота                                   : 576 пикселей
Соотношение сторон                       : 16:9
Частота кадров                           : 25,000 кадров/сек
Стандарт вещания                         : PAL
Цветовое пространство                    : YUV
Субдискретизация насыщенности            : 4:2:0
Битовая глубина                          : 8 бит
Тип развёртки                            : Чересстрочная
Порядок развёртки                        : Верхнее поле первое
Метод сжатия                             : С потерями
Бит/(Пиксели*Кадры)                      : 0.561
Размер потока                            : 815 Мбайт (80%)

Аудио #1
Идентификатор                            : 189 (0xBD)-128 (0x80)
Формат                                   : AC-3
Формат/Информация                        : Audio Coding 3
Расширение режима                        : CM (complete main)
Параметр Endianness формата              : Big
Режим смешивания                         : DVD-Video
Продолжительность                        : 19 м.
Вид битрейта                             : Постоянный
Битрейт                                  : 384 Кбит/сек
Каналы                                   : 6 каналов
Расположение каналов                     : Front: L C R, Side: L R, LFE
Частота                                  : 48,0 КГц
Битовая глубина                          : 16 бит
Метод сжатия                             : С потерями
Размер потока                            : 53,8 Мбайт (5%)

Аудио #2
Идентификатор                            : 189 (0xBD)-129 (0x81)
Формат                                   : AC-3
Формат/Информация                        : Audio Coding 3
Расширение режима                        : CM (complete main)
Параметр Endianness формата              : Big
Режим смешивания                         : DVD-Video
Продолжительность                        : 19 м.
Вид битрейта                             : Постоянный
Битрейт                                  : 384 Кбит/сек
Каналы                                   : 6 каналов
Расположение каналов                     : Front: L C R, Side: L R, LFE
Частота                                  : 48,0 КГц
Битовая глубина                          : 16 бит
Метод сжатия                             : С потерями
Размер потока                            : 53,8 Мбайт (5%)

Аудио #3
Идентификатор                            : 189 (0xBD)-130 (0x82)
Формат                                   : AC-3
Формат/Информация                        : Audio Coding 3
Расширение режима                        : CM (complete main)
Параметр Endianness формата              : Big
Режим смешивания                         : DVD-Video
Продолжительность                        : 19 м.
Вид битрейта                             : Постоянный
Битрейт                                  : 384 Кбит/сек
Каналы                                   : 6 каналов
Расположение каналов                     : Front: L C R, Side: L R, LFE
Частота                                  : 48,0 КГц
Битовая глубина                          : 16 бит
Метод сжатия                             : С потерями
Размер потока                            : 53,8 Мбайт (5%)

Аудио #4
Идентификатор                            : 189 (0xBD)-131 (0x83)
Формат                                   : AC-3
Формат/Информация                        : Audio Coding 3
Профиль формата                          : Dolby Digital
Расширение режима                        : CM (complete main)
Параметр Endianness формата              : Big
Режим смешивания                         : DVD-Video
Продолжительность                        : 19 м.
Вид битрейта                             : Постоянный
Битрейт                                  : 192 Кбит/сек
Каналы                                   : 2 канала
Расположение каналов                     : Front: L R
Частота                                  : 48,0 КГц
Битовая глубина                          : 16 бит
Метод сжатия                             : С потерями
Размер потока                            : 26,9 Мбайт (3%)

Текст #1
Идентификатор                            : 189 (0xBD)-32 (0x20)
Формат                                   : RLE
Формат/Информация                        : Run-length encoding
Режим смешивания                         : DVD-Video

Текст #2
Идентификатор                            : 189 (0xBD)-33 (0x21)
Формат                                   : RLE
Формат/Информация                        : Run-length encoding
Режим смешивания                         : DVD-Video

Текст #3
Идентификатор                            : 189 (0xBD)-34 (0x22)
Формат                                   : RLE
Формат/Информация                        : Run-length encoding
Режим смешивания                         : DVD-Video

Текст #4
Идентификатор                            : 189 (0xBD)-35 (0x23)
Формат                                   : RLE
Формат/Информация                        : Run-length encoding
Режим смешивания                         : DVD-Video

Текст #5
Идентификатор                            : 189 (0xBD)-36 (0x24)
Формат                                   : RLE
Формат/Информация                        : Run-length encoding
Режим смешивания                         : DVD-Video

Текст #6
Идентификатор                            : 189 (0xBD)-37 (0x25)
Формат                                   : RLE
Формат/Информация                        : Run-length encoding
Режим смешивания                         : DVD-Video

Текст #7
Идентификатор                            : 189 (0xBD)-38 (0x26)
Формат                                   : RLE
Формат/Информация                        : Run-length encoding
Режим смешивания                         : DVD-Video

Текст #8
Идентификатор                            : 189 (0xBD)-39 (0x27)
Формат                                   : RLE
Формат/Информация                        : Run-length encoding
Режим смешивания                         : DVD-Video

Текст #9
Идентификатор                            : 189 (0xBD)-40 (0x28)
Формат                                   : RLE
Формат/Информация                        : Run-length encoding
Режим смешивания                         : DVD-Video

Текст #10
Идентификатор                            : 189 (0xBD)-41 (0x29)
Формат                                   : RLE
Формат/Информация                        : Run-length encoding
Режим смешивания                         : DVD-Video

Текст #11
Идентификатор                            : 189 (0xBD)-42 (0x2A)
Формат                                   : RLE
Формат/Информация                        : Run-length encoding
Режим смешивания                         : DVD-Video

Текст #12
Идентификатор                            : 189 (0xBD)-43 (0x2B)
Формат                                   : RLE
Формат/Информация                        : Run-length encoding
Режим смешивания                         : DVD-Video

Меню

pb.wtf



Скачать Жутко громко и запредельно близко через торрент https://pic1.kartinco.top/images/111/3gqx11fzor.png Скачать фильм Жутко громко и запредельно близко через торрент бесплантно в хорошем качестве Описание: Десятилетний Оскар теряет отца в день атаки на башни-близнецы в Нью-Йорке. По всему городу Оскар ищет информацию, которая должна ... 3.8 10 4
Info! Золотая раздача, скачанное не засчитывается.
Торрент: Зарегистрирован [2012-07-18 09:19] · скачан: 34 раз
Статус: √ проверено
Размер: 6.45 GB
Как cкачать? Как скачать Жутко громко и запредельно близко через торрент | UTorrent

28-11-2019 20:33  

Отключить всю рекламу на сайте

27-07-2012 17:41 Жутко громко и запредельно близко Скачать торрент  

как фильм?pb.wtf



    Дорогой пользователь! Огромная просьба, поблагодарите релизера, оцените раздачу и оставьте свои комментарий, если Вы скачали Жутко громко и запредельно близко через торрент бесплатно! Внесите свою лепту в развитие PiratBit!
    Комментировать посты могут только пользователи прошедшие не сложную регистрацию
    Показать сообщения:    

    Жутко громко и запредельно близко через торрент
    Скачать бесплатно Жутко громко и запредельно близко
    Жутко громко и запредельно близко скачать торрент
    Жутко громко и запредельно близко смотреть онлайн
    Cкачать фильм Жутко громко и запредельно близко бесплатно
    Жутко громко и запредельно близко скачать торрент в хорошем качестве
    Жутко громко и запредельно близко смотреть онлайн бесплатно в хорошем качестве


    Вы не можете начинать темы
    Вы не можете отвечать на сообщения
    Вы не можете редактировать свои сообщения
    Вы не можете удалять свои сообщения
    Вы не можете голосовать в опросах
    Вы не можете прикреплять файлы к сообщениям
    Вы можете скачивать файлы