Всегда рабочее зеркало без VPN и Proxy просто перед .vidak.icu напиши любое слово или цифру, Пример http://5eor.vidak.icu

Лицензия

MVO

1 сезон

1

1 сезон

iTunes

1 сезон

13

1 сезон

Deluxe

pack

Рекомендуем

Repack

30

ВАЖНО

RePack

MK11

RePack

jed

RePack

fifa19

RePack

RDR2

RePack

NEED FOR SPEED™ PAYBACK

Кинопоиск HD

6 сезон

 Острые козырьки 6 сезон

Все сериалы

все сериалы на PB.wtf

RePack

FAR CRY 5
  
Magnet ссылка

Порношик №23 / Claire - Pornochic 23 (Hervé Bodilis / Marc Dorcel.) [2012 г., All Sex, Anal, Oral., DVDRip] pb.wtf

Порношик №23 через торрент pb.wtf

Размер: 1.01 GB | Добавлен: 10 лет назад | Торрент скачан:860 раз
Смотреть онлайн Порношик №23 | Скачать    Ребята, помогите собрать деньги на оплату серверов!!!

18-07-2012 14:46 Порношик №23 Скачать торрент  

Порношик №23. / Claire - Pornochic 23.



Страна: France.
Режиссёр: Hervé Bodilis.
Студия: Marc Dorcel.
Жанр: All Sex, Anal, Oral.
Продолжительность: 00:14:21+00:12:01+00:15:17+00:11:31+00:10:06+00:12:49.
Год выпуска: 2012 г.
В ролях: Aleska Diamond, Black Angelika, Claire Castel, Liza Del Sierra, Anissa Kate, Alex., Ian Scott, J.P.X, James Brossman, Leny Ewil, Math, Michael Cheritto.


Résumé du film Pornochic 23 - Claire Castel
Simplement vêtue d’une jolie lingerie fine et de chaussures à talon, la superbe Claire Castel se fait bander les yeux. Ce soir, son pervers de mec lui a réservé une magnifique surprise : une brune très chaude aux nichons de rêve qui va offrir chacun de ses orifices comme jamais elle ne l’avait fait jusque-là. Au comble de l’orgasme, Claire décide de rendre la pareille à son amant : dès le lendemain, elle qui lui réserve une surprise scandaleuse au cours de laquelle, dans un somptueux appartement bourgeois, le sperme coulera littéralement à flot

\
Качество видео: VOD.
Формат видео: AVI.
Видео: 960x544.
Аудио: Dolby AC3, 48000Hz, stereo, 192Kbps, [Audio 1].
Доп. информация: Studio: Marc Dorcel.
Quality: VODRip
Size: 1,02 GB
Duration: 78 min
Resolution: 960x544
6 Scenes
Bit rate : 1 706 Kbps
Width : 960 pixels
Height : 544 pixels
Display aspect ratio : 16:9
Frame rate : 25.000 fps
Color space : YUV
Chroma subsampling : 4:2:0
Bit depth : 8 bits
Scan type : Progressive
Compression mode : Lossy
Bits/(Pixel*Frame) : 0.131
Stream size : 156 MiB (89%)
Writing library : ZJMedia MPEG Encoder
audio:
Bit rate : 192 Kbps
Channel(s) : 2 channels
Channel positions : Front: L R
Sampling rate : 48.0 KHz
Bit depth : 16 bits
Compression mode : Lossy
Stream size : 15.8 MiB (10%)
Alignment : Aligned on interleaves
Interleave, duration : 32 ms (0.80 video frame)
Interleave, preload duration : 512 ms








pb.wtf



pack Скачать Порношик №23 через торрент http://i43.fastpic.ru/big/2012/0718/79/128920b79e9a9b68dcd61928b1058379.jpeg Скачать, смотреть онлайн Порношик №23 бесплантно в хорошем качестве В ролях: Aleska Diamond, Black Angelika, Claire Castel, Liza Del Sierra, Anissa Kate, Alex., Ian Scott, J.P.X, James Brossman, Leny Ewil, ... 10 10 3
Info! Золотая раздача, скачанное не засчитывается.
Торрент: Зарегистрирован [2012-07-18 14:46] · скачан: 860 раз
Статус: √ проверено
Размер: 1.01 GB
Как cкачать? Как скачать Порношик №23 через торрент | UTorrent

% Раздел Тема Автор DL S | L
Порно фильмы с сюжетом [ 1.46 GB ] Порношик 23: Клер Кастель / Pornochic 23: Claire Castel [2012 Feature Double Penetration Anal. DVDRip-AVC Оригинал] [email protected] Скачать
1 | 0
Порно фильмы с сюжетом [ 753 MB ] Порношик #23: Клер Кастель / Pornochic #23: Claire Castel [2012 Feature Double Penetration Anal Hardcore All Sex. DVDRip] [email protected] Скачать
1 | 0

28-11-2019 20:33  

Отключить вcю реклaмy на сайте

18-07-2012 20:13 Порношик №23 Скачать торрент  

Спасибо!!!pb.wtf



pack

19-07-2012 10:55 Порношик №23 Скачать торрент  

ФриОлич до конца лета - не с ошибкой?
Не придирка,просто спросил. Хвала всем раздающим,ничего личного!pb.wtf



pack
    Дорогой пользователь! Огромная просьба, поблагодарите релизера, оцените раздачу и оставьте свои комментарий, если Вы скачали Порношик №23 через торрент бесплатно!
    Комментировать посты могут только пользователи прошедшие не сложную регистрацию
    Показать сообщения:    

    Порношик №23 через торрент
    Скачать бесплатно Порношик №23
    Порношик №23 скачать торрент
    Порношик №23 смотреть онлайн
    Cкачать фильм Порношик №23 бесплатно
    Порношик №23 скачать торрент в хорошем качестве
    Порношик №23 смотреть онлайн бесплатно в хорошем качестве


    Вы не можете начинать темы
    Вы не можете отвечать на сообщения
    Вы не можете редактировать свои сообщения
    Вы не можете удалять свои сообщения
    Вы не можете голосовать в опросах
    Вы не можете прикреплять файлы к сообщениям
    Вы можете скачивать файлы