Ссылка на приватное зеркало нашего сайта всего за 1$. Внимание количество ограничено!!!

2 сезон

iTunes

1 сезон

1

2 сезон

2 сезон

iTunes

1 сезон

RePack

30

Ultimate

ВАЖНО

ИГРА 18+

pack

RePack

MK11
pack

Забери бонус

RePack

jed

!!Акция!!

Alien_Rage

RePack

fifa19

RePack

Assassins Creed: Odyssey

RePack

NEED FOR SPEED™ PAYBACK

4 сезон

9 сезон

Бесстыжие 9 сезон

Все сериалы

все сериалы на PB.wtf

RePack

FAR CRY 5
  

Рокко: Экстремальные дырки 2 / Rocco's X-Treme Gapes 2 (Rocco Siffredi, Evil Angel) [2012 г., Gonzo, Oral, Anal, A2M, DP, DAP, Xtreme, Toys, Gape, Russian Girls, DVD5] pb.wtf

Рокко: Экстремальные дырки 2 через торрент pb.wtf

Размер: 4.36 GB | Добавлен: 8 лет 4 мес. назад | Торрент скачан:444 раза
Скачать  

19-07-2012 10:51 Рокко: Экстремальные дырки 2 Скачать торрент  

Rocco's X-Treme Gapes 2 Год выпуска : 2012
Страна :

Жанр : Gonzo, Foreign, Oral, Anal, Gaping, Extreme Penetrations, Ass to Mouth, Facial, Multiple Penetrations, Big Cock, Lesbian,
Toys, Gape, Threesomes, Interracial, Europeans, Russian Girls, Straight, Hardcore, Fetish, Teens/Young Women, Rocco's X-Treme Gapes Series


Продолжительность : 02:53:30 (фильм) + 00:42:36 (бонус)

Режиссер : Rocco Siffredi
Студиа : Evil Angel
Язык : Actresses - Liza Shay (as Eliza) [Anal Bald A2M]
Grace Young (as Helen) [Anal A2M]
Izobella Clark (as Isabella Clark) [Anal]
Megan Vale (as Megan) [Anal Facial Bald]
Sasha Rose [Anal Facial DP DAP IR]
Actors - Michael Chapman (as Mike Chapman), Rocco Siffredi
"We have Young Girls Going So Wild In Anal. Then We Have The Queen Of Gapes, Isabella Clark. She Kept Asking For More!" -Rocco Siffredi
A legendary, big-dicked sex pervert and groundbreaking porn director, Rocco Siffredi is crazy about gaping female assholes.
"Rocco's X-Treme Gapes 2" contains three epic scenes starring adventurous Euro-cuties with sphincters flexible enough to open like massive portholes!
First, lovely brown-haired model Megan kneels to suck Rocco's enormous pole while rectal acrobat Isabella Clark uses a gigantic rubber cone to train her amazing bunghole.
Rocco and Megan ream Isabella's ass with a string of huge anal beads, then fill her cavernous colon with several dildos at once! Upon spurting a hot load into Megan's mouth, Rocco has the ladies kiss. Качество : DVD5
Формат : DVD Video
Видео кодек : MPEG2
Аудио кодек : AC3
Видео : MPEG2 Video 720x480 (16:9) 29.97fps 7500kbps
Аудио : Dolby AC3 48000Hz stereo 192kbps

Полное имя : Rocco's X-Treme Gapes 2 (2012) DVD5\VIDEO_TS\VTS_07_1.VOB
Формат : MPEG-PS
Размер файла : 1024 Мбайт
Продолжительность : 41 м.
Режим общего битрейта : Переменный
Общий поток : 3456 Кбит/сек
Видео
Идентификатор : 224 (0xE0)
Формат : MPEG Video
Версия формата : Version 2
Профиль формата : Main@Main
Параметр BVOP формата : Да
Параметр матрицы формата : Выборочная
Параметр GOP формата : M=3, N=15
Продолжительность : 41 м.
Вид битрейта : Переменный
Битрейт : 3196 Кбит/сек
Максимальный битрейт : 7500 Кбит/сек
Ширина : 720 пикселей
Высота : 480 пикселей
Соотношение сторон : 16:9
Частота кадров : 29,970 кадров/сек
Стандарт вещания : NTSC
Цветовое пространство : YUV
Субдискретизация насыщенности : 4:2:0
Битовая глубина : 8 бит
Тип развёртки : Прогрессивная
Метод сжатия : С потерями
Бит/(Пиксели*Кадры) : 0.309
Размер потока : 947 Мбайт (92%)
Основные цвета : SMPTE 170M
Характеристики трансфера : SMPTE 170M
Коэффициенты матрицы : SMPTE 170M
Аудио
Идентификатор : 189 (0xBD)-128 (0x80)
Формат : AC-3
Формат/Информация : Audio Coding 3
Расширение режима : CM (complete main)
Режим смешивания : DVD-Video
Продолжительность : 41 м.
Вид битрейта : Постоянный
Битрейт : 192 Кбит/сек
Каналы : 2 канала
Расположение каналов : Front: L R
Частота : 48,0 КГц
Битовая глубина : 16 бит
Метод сжатия : С потерями
Размер потока : 56,9 Мбайт (6%)

pb.wtf



pack Скачать Рокко: Экстремальные дырки 2 через торрент http://i41.fastpic.ru/big/2012/0718/06/de9fec674676d5539e95f1f37208de06.png Скачать фильм Рокко: Экстремальные дырки 2 через торрент бесплантно в хорошем качестве Год выпуска : 2012Страна : Жанр : Gonzo, Foreign, Oral, Anal, Gaping, Extreme Penetrations, Ass to Mouth, Facial, Multiple Penetrations, ... 9.7 10 3
Info! Золотая раздача, скачанное не засчитывается.
Торрент: Зарегистрирован [2012-07-19 13:01] · скачан: 444 раз
Статус: √ проверено
Размер: 4.36 GB
Как cкачать? Как скачать Рокко: Экстремальные дырки 2 через торрент | qTorrent



Последний раз редактировалось: лисяра (2012-07-23 19:02), всего редактировалось 1 раз

28-11-2019 20:33  

Отключить всю рекламу на сайте

19-07-2012 13:09 Рокко: Экстремальные дырки 2 Скачать торрент  

Фрилич до конца лета - Скаченное не засчитывается!!! pb.wtf



pack
    Дорогой пользователь! Огромная просьба, поблагодарите релизера, оцените раздачу и оставьте свои комментарий, если Вы скачали Рокко: Экстремальные дырки 2 через торрент бесплатно! Внесите свою лепту в развитие PiratBit!
    Комментировать посты могут только пользователи прошедшие не сложную регистрацию
    Показать сообщения:    

    Рокко: Экстремальные дырки 2 через торрент
    Скачать бесплатно Рокко: Экстремальные дырки 2
    Рокко: Экстремальные дырки 2 скачать торрент
    Рокко: Экстремальные дырки 2 смотреть онлайн
    Cкачать фильм Рокко: Экстремальные дырки 2 бесплатно
    Рокко: Экстремальные дырки 2 скачать торрент в хорошем качестве
    Рокко: Экстремальные дырки 2 смотреть онлайн бесплатно в хорошем качестве


    Вы не можете начинать темы
    Вы не можете отвечать на сообщения
    Вы не можете редактировать свои сообщения
    Вы не можете удалять свои сообщения
    Вы не можете голосовать в опросах
    Вы не можете прикреплять файлы к сообщениям
    Вы можете скачивать файлы