Ссылка на приватное зеркало нашего сайта всего за 1$. Внимание количество ограничено!!!

2 сезон

iTunes

1 сезон

1

iTunes

iTunes

iTunes

1 сезон

RePack

30

ИГРА 18+

pack

ВАЖНО

!!Акция!!

Alien_RageХит недели

RePack

MK11
pack

Забери бонус

RePack

jed

!!Акция!!

Alien_Rage

RePack

fifa19

RePack

Assassins Creed: Odyssey

RePack

NEED FOR SPEED™ PAYBACK

4 сезон

9 сезон

Бесстыжие 9 сезон

Все сериалы

все сериалы на PB.wtf

RePack

FAR CRY 5
  

Американский боевой корабль / The American Battleship (Тандер Левин) [2012 г., боевик, фантастика, BDRip (720p), VO] pb.wtf

Американский боевой корабль через торрент pb.wtf

Размер: 4.65 GB | Добавлен: 8 лет 3 мес. назад | Торрент скачан:137 раз
Скачать  

19-07-2012 13:12 Американский боевой корабль Скачать торрент  

[img=right]http:// СПАМ

Американский боевой корабль / The American Battleship

Год выпуска: 2012
Страна: США, Global Asylum
Жанр: боевик, фантастика
Продолжительность: 01:29:27
Перевод: Любительский (одноголосый)

Режиссер: Тандер Левин

http://www.imdb.com/title/tt2175927/

В ролях: Марио Ван Пиблз, Карл Уэзерс, Джоанна Уоттс, Никки МакКоли, Мандела Ван Пиблз, Девин МакГи, Крис Хэйес

Описание: Когда флот таинственных кораблей нападает на Землю, только команда последнего американского боевого судна сможет предотвратить армагеддон

Качество: BDRip (720p) [HDChina]
Формат: MKV
Видео кодек: H.264
Аудио кодек: AC3
Видео: 5488 Kb/s, 1280x720, 23.976 fps , 0.248 bit/pixel
Аудио#1: Russian: AC3, 448 Kb/s (6 ch), 48.0 KHz
Аудио#2: English: DTS, 1510 Kb/s (6 ch), 48.0 KHz
General
Unique ID : 251342251860484753595130863873111132578 (0xBD16C1C52ACD23639ED5C92A34C489A2)
Complete name : ********\Американский боевой корабль.mkv
Format : Matroska
Format version : Version 2
File size : 4.65 GiB
Duration : 1h 29mn
Overall bit rate : 7 445 Kbps
Movie name : uniongang.tv
Encoded date : UTC 2012-06-05 12:38:20
Writing application : mkvmerge v5.0.1 ('Es ist Sommer') built on Nov 6 2011 16:23:40
Writing library : libebml v1.2.2 libmatroska v1.3.0

Video
ID : 1
Format : AVC
Format/Info : Advanced Video Codec
Format profile : High@L4.1
Format settings, CABAC : Yes
Format settings, ReFrames : 9 frames
Codec ID : V_MPEG4/ISO/AVC
Duration : 1h 29mn
Bit rate : 5 488 Kbps
Width : 1 280 pixels
Height : 720 pixels
Display aspect ratio : 16:9
Frame rate : 23.976 fps
Color space : YUV
Chroma subsampling : 4:2:0
Bit depth : 8 bits
Scan type : Progressive
Bits/(Pixel*Frame) : 0.248
Stream size : 3.34 GiB (72%)
Writing library : x264 core 125 r2200 999b753
Encoding settings : cabac=1 / ref=9 / deblock=1:-3:-3 / analyse=0x3:0x113 / me=umh / subme=10 / psy=1 / psy_rd=1.10:0.00 / mixed_ref=1 / me_range=48 / chroma_me=1 / trellis=2 / 8x8dct=1 / cqm=0 / deadzone=21,11 / fast_pskip=0 / chroma_qp_offset=-4 / threads=9 / lookahead_threads=1 / sliced_threads=0 / nr=0 / decimate=0 / interlaced=0 / bluray_compat=0 / constrained_intra=0 / bframes=8 / b_pyramid=2 / b_adapt=2 / b_bias=0 / direct=3 / weightb=1 / open_gop=0 / weightp=2 / keyint=250 / keyint_min=23 / scenecut=40 / intra_refresh=0 / rc_lookahead=40 / rc=2pass / mbtree=0 / bitrate=5488 / ratetol=1.0 / qcomp=0.60 / qpmin=0 / qpmax=69 / qpstep=4 / cplxblur=20.0 / qblur=0.5 / vbv_maxrate=40000 / vbv_bufsize=40000 / nal_hrd=none / ip_ratio=1.40 / pb_ratio=1.30 / aq=1:0.80
Language : English
Default : No
Forced : No

Audio #1
ID : 2
Format : AC-3
Format/Info : Audio Coding 3
Mode extension : CM (complete main)
Codec ID : A_AC3
Duration : 1h 29mn
Bit rate mode : Constant
Bit rate : 448 Kbps
Channel(s) : 6 channels
Channel positions : Front: L C R, Side: L R, LFE
Sampling rate : 48.0 KHz
Bit depth : 16 bits
Compression mode : Lossy
Stream size : 287 MiB (6%)
Language : Russian
Default : Yes
Forced : Yes

Audio #2
ID : 3
Format : DTS
Format/Info : Digital Theater Systems
Codec ID : A_DTS
Duration : 1h 29mn
Bit rate mode : Constant
Bit rate : 1 510 Kbps
Channel(s) : 6 channels
Channel positions : Front: L C R, Side: L R, LFE
Sampling rate : 48.0 KHz
Bit depth : 24 bits
Compression mode : Lossy
Stream size : 966 MiB (20%)
Language : English
Default : No
Forced : No
pb.wtf



Скачать Американский боевой корабль через торрент http://pb.wtf/assets/images/groups/ELEKTRI4KA.gif Скачать фильм Американский боевой корабль через торрент бесплантно в хорошем качестве Описание: Когда флот таинственных кораблей нападает на Землю, только команда последнего американского боевого судна сможет предотвратить ... 5 10 12
Info! Золотая раздача, скачанное не засчитывается.
Торрент: Зарегистрирован [2012-07-19 13:12] · скачан: 137 раз
Статус: T временная
Размер: 4.65 GB
Как cкачать? Как скачать Американский боевой корабль через торрент | qTorrent



Последний раз редактировалось: Timberwolf (2012-07-19 21:06), всего редактировалось 1 раз

28-11-2019 20:33  

Отключить всю рекламу на сайте

19-07-2012 13:48 Американский боевой корабль Скачать торрент  

Global Asylum ВАУ!!!pb.wtf



19-07-2012 13:50 Американский боевой корабль Скачать торрент  

ТВ3?pb.wtf



19-07-2012 14:09 Американский боевой корабль Скачать торрент  

RusMG86 писал(а):

ТВ3?

Круче - asylum pb.wtf



19-07-2012 14:29 Американский боевой корабль Скачать торрент  

Типа "Морской Бой" но с более низким бюджетом?pb.wtf



19-07-2012 15:19 Американский боевой корабль Скачать торрент  

а че скриншотов и семпла вообще нету ?pb.wtf



19-07-2012 15:33 Американский боевой корабль Скачать торрент  

хреньpb.wtf



19-07-2012 16:21 Американский боевой корабль Скачать торрент  

Timberwolf
Выложи информацию МедиаИнфо. Данные по видео и аудио ряду не в полном объеме.
Дополнительные требования к оформлению релизов HD Video
Шаблон оформления-Кино, Видео и ТВ pb.wtf



19-07-2012 17:21 Американский боевой корабль Скачать торрент  

Global Asylum это ещё что такоеpb.wtf



19-07-2012 17:35 Американский боевой корабль Скачать торрент  

Психушка!pb.wtf



19-07-2012 20:58 Американский боевой корабль Скачать торрент  

с семплом все в норме.скрины перезалилpb.wtf



20-07-2012 10:46 Американский боевой корабль Скачать торрент  

MIXX_ON писал(а):

Global Asylum это ещё что такое

эсайлэм, в переводе — «лечебница, убежище») — американская киностудия и дистрибьютор, специализирующаяся на низкобюджетных direct-to-video фильмах. Главным образом известна по созданию фильмов, имитирующих ожидаемые блокбастеры. За данной категорией фильмов устоялся термин «мокбастер».
Список мокбастеров
Морской бой / Американский боевой корабль/2012
pb.wtf



    Дорогой пользователь! Огромная просьба, поблагодарите релизера, оцените раздачу и оставьте свои комментарий, если Вы скачали Американский боевой корабль через торрент бесплатно! Внесите свою лепту в развитие PiratBit!
    Комментировать посты могут только пользователи прошедшие не сложную регистрацию
    Показать сообщения:    

    Американский боевой корабль через торрент
    Скачать бесплатно Американский боевой корабль
    Американский боевой корабль скачать торрент
    Американский боевой корабль смотреть онлайн
    Cкачать фильм Американский боевой корабль бесплатно
    Американский боевой корабль скачать торрент в хорошем качестве
    Американский боевой корабль смотреть онлайн бесплатно в хорошем качестве


    Вы не можете начинать темы
    Вы не можете отвечать на сообщения
    Вы не можете редактировать свои сообщения
    Вы не можете удалять свои сообщения
    Вы не можете голосовать в опросах
    Вы не можете прикреплять файлы к сообщениям
    Вы можете скачивать файлы