Лицензия

MVO

1

1 сезон

Лицензия

Лицензия

13

MVO

1 сезон

Deluxe Edition

pack

Рекомендуем

30

Repack

ВАЖНО

ВАЖНО

Ghostwire

RePack

jed

RePack

fifa19

RePack

RDR2

RePack

NEED FOR SPEED™ PAYBACK

RePack

Кинопоиск HD

 Острые козырьки 6 сезон

6 сезон

FAR CRY 6

RePack

Лицензия

MVO

1

1 сезон

1 сезон

Лицензия

  

Приходи как есть / Hasta la Vista! (Жоффрей Энтховен / Geoffrey Enthoven) [2011, драма, комедия, .BDRip(720p)] MVO

Приходи как есть через торрент pb.wtf

Размер: 4.46 GB | Добавлен: 10 лет назад | Торрент скачан:193 раза
Смотреть онлайн Приходи как есть | Скачать   

19-07-2012 19:52 Приходи как есть Скачать торрент  

Приходи как есть / Hasta la Vista! Год выпуска: 2011
Страна: Бельгия / Fobic Films
Жанр: драма, комедия
Продолжительность: 01:49:13
Перевод: Профессиональный (многоголосый закадровый)
Cубтитры: French
Режиссер: Жоффрей Энтховен / Geoffrey Enthoven
В ролях: Робрехт Ванден Торен, Жилль Де Шрийвер, Том Ауденарт, Изабель де Гертог, Карлейн Силегем, Йохан Хелденберг, Кателин Вербеке, Шарлотта Тиммерс Описание: История трех молодых людей, обожающих красивую жизнь, но ни разу не спавших с женщиной, потому что один из них слеп, второй передвигается на коляске, а третий и вовсе парализован. В поисках женщин они втроем отправляются в Испанию.


[font="Georgia"]Качество: .BDRip(720p)
Формат: MKV
Видео кодек: H.264
Аудио кодек: AC3, DTS
Видео: x264; 1280х544 (2.35:1), 25,000 кадр/сек, ~421ё8 кбит/сек, 0.242 bit/pixel
Аудио 1: Rus: AC3; 48,0 КГц; 128 Кбит/сек; 2ch
Аудио 2: French: DTS; 48,0 КГц; 1510Кбит/сек; 6ch
Общее
Уникальный идентификатор : 213136190930313071377109404786103168917 (0xA058898833CB6D868F17A4CD2E0C2F95)
Полное имя : F:\ФИЛЬМЫ ТОРРЕНТА\Prihodi.kak.est.2011.x264.BDRip.720p.mkv
Формат : Matroska
Версия формата : Version 2
Размер файла : 4,46 Гбайт
Продолжительность : 1 ч. 49 м.
Общий поток : 5853 Кбит/сек
Дата кодирования : UTC 2012-07-19 12:58:35
Программа кодирования : mkvmerge v5.7.0 ('The Whirlwind') built on Jul 8 2012 20:08:51
Библиотека кодирования : libebml v1.2.3 + libmatroska v1.3.0

Видео
Идентификатор : 1
Формат : AVC
Формат/Информация : Advanced Video Codec
Профиль формата : [email protected]
Параметр CABAC формата : Да
Параметр ReFrames формата : 5 кадров
Режим смешивания : Header stripping
Идентификатор кодека : V_MPEG4/ISO/AVC
Продолжительность : 1 ч. 49 м.
Битрейт : 4218 Кбит/сек
Ширина : 1280 пикселей
Высота : 544 пикселя
Соотношение сторон : 2,35:1
Частота кадров : 25,000 кадров/сек
Цветовое пространство : YUV
Субдискретизация насыщенности : 4:2:0
Битовая глубина : 8 бит
Тип развёртки : Прогрессивная
Бит/(Пиксели*Кадры) : 0.242
Размер потока : 3,13 Гбайт (70%)
Библиотека кодирования : x264 core 125 r2200 999b753
Настройки программы : cabac=1 / ref=5 / deblock=1:0:0 / analyse=0x3:0x113 / me=umh / subme=8 / psy=1 / psy_rd=1.00:0.00 / mixed_ref=1 / me_range=16 / chroma_me=1 / trellis=1 / 8x8dct=1 / cqm=0 / deadzone=21,11 / fast_pskip=1 / chroma_qp_offset=-2 / threads=12 / lookahead_threads=2 / sliced_threads=0 / nr=0 / decimate=1 / interlaced=0 / bluray_compat=0 / constrained_intra=0 / bframes=3 / b_pyramid=2 / b_adapt=2 / b_bias=0 / direct=3 / weightb=1 / open_gop=0 / weightp=2 / keyint=250 / keyint_min=25 / scenecut=40 / intra_refresh=0 / rc_lookahead=50 / rc=2pass / mbtree=1 / bitrate=4218 / ratetol=1.0 / qcomp=0.60 / qpmin=0 / qpmax=69 / qpstep=4 / cplxblur=20.0 / qblur=0.5 / ip_ratio=1.40 / aq=1:1.00
Язык : English

Аудио #1
Идентификатор : 2
Формат : AC-3
Формат/Информация : Audio Coding 3
Расширение режима : CM (complete main)
Режим смешивания : Header stripping
Идентификатор кодека : A_AC3
Продолжительность : 1 ч. 49 м.
Вид битрейта : Постоянный
Битрейт : 128 Кбит/сек
Каналы : 2 канала
Расположение каналов : Front: L R
Частота : 48,0 КГц
Битовая глубина : 16 бит
Метод сжатия : С потерями
Размер потока : 100,0 Мбайт (2%)
Заголовок : Russian AC3 128kbps
Язык : Russian

Аудио #2
Идентификатор : 3
Формат : DTS
Формат/Информация : Digital Theater Systems
Режим смешивания : Header stripping
Идентификатор кодека : A_DTS
Продолжительность : 1 ч. 49 м.
Вид битрейта : Постоянный
Битрейт : 1510 Кбит/сек
Каналы : 6 каналов
Расположение каналов : Front: L C R, Side: L R, LFE
Частота : 48,0 КГц
Битовая глубина : 24 бит
Метод сжатия : С потерями
Размер потока : 1,15 Гбайт (26%)
Заголовок : French DTS 1509kbps
Язык : French

Текст
Идентификатор : 4
Формат : UTF-8
Идентификатор кодека : S_TEXT/UTF8
Идентификатор кодека/Информация : UTF-8 Plain Text
Заголовок : French_forced
Язык : French

Меню
00:00:00.000 : en:00:00:00.000
00:02:44.480 : en:00:02:44.480
00:08:56.720 : en:00:08:56.720
00:15:32.600 : en:00:15:32.600
00:25:48.880 : en:00:25:48.880
00:33:07.240 : en:00:33:07.240
00:38:22.200 : en:00:38:22.200
00:45:29.080 : en:00:45:29.080
00:55:07.760 : en:00:55:07.760
01:02:15.400 : en:01:02:15.400
01:07:46.000 : en:01:07:46.000
01:13:03.520 : en:01:13:03.520
01:15:04.040 : en:01:15:04.040
01:19:12.200 : en:01:19:12.200
01:25:24.720 : en:01:25:24.720
01:31:51.440 : en:01:31:51.440
01:34:22.080 : en:01:34:22.080
01:40:04.000 : en:01:40:04.000



Скачать Приходи как есть через торрент http://i43.fastpic.ru/big/2012/0719/c7/cd3ea8764ebae70e117b89e3eab5dac7.png Скачать, смотреть онлайн Приходи как есть бесплантно в хорошем качестве Описание: История трех молодых людей, обожающих красивую жизнь, но ни разу не спавших с женщиной, потому что один из них слеп, второй ... 5 10 7
Info! Золотая раздача, скачанное не засчитывается.
Торрент: Зарегистрирован [2012-07-19 19:52] · скачан: 193 раз
Статус: √ проверено
Размер: 4.46 GB
Как cкачать? Как скачать Приходи как есть через торрент | UTorrent

28-11-2019 20:33  

Отключить вcю реклaмy на сайте

19-07-2012 20:44 Приходи как есть Скачать торрент  

Ждал этот фильм )) скорости пожалуйста



20-07-2012 06:08 Приходи как есть Скачать торрент  

Заценим



20-08-2012 11:42 Приходи как есть Скачать торрент  

Бельгия это НАШЕ КИНО? Не та ветка!



30-08-2012 22:32 Приходи как есть Скачать торрент  

-=Cherry=-
А почему 720р у вас =1280х544р?
зы Спасибо за труды



    Дорогой пользователь! Огромная просьба, поблагодарите релизера, оцените раздачу и оставьте свои комментарий, если Вы скачали Приходи как есть через торрент бесплатно!!
    Комментировать посты могут только пользователи прошедшие не сложную регистрацию
    Показать сообщения:    


    Приходи как есть через торрент
    Скачать бесплатно Приходи как есть
    Приходи как есть скачать торрент
    Приходи как есть смотреть онлайн
    Cкачать фильм Приходи как есть бесплатно
    Приходи как есть скачать торрент в хорошем качестве
    Приходи как есть смотреть онлайн бесплатно в хорошем качестве
    Вы не можете начинать темы
    Вы не можете отвечать на сообщения
    Вы не можете редактировать свои сообщения
    Вы не можете удалять свои сообщения
    Вы не можете голосовать в опросах
    Вы не можете прикреплять файлы к сообщениям
    Вы можете скачивать файлы