2 сезон

iTunes

MVO

1

2 сезон

iTunes

iTunes

1 сезон

RePack

30

Новинка

ВАЖНО

ИГРА 18+

pack

RePack

MK11
pack

Легкие деньги

RePack

jed

RePack

fifa19

RePack

RDR2

RePack

NEED FOR SPEED™ PAYBACK

4 сезон

9 сезон

Бесстыжие 9 сезон

Все сериалы

все сериалы на PB.wtf

RePack

FAR CRY 5

Anonymous, доброе утро, мы не успеваем собрать деньги на оплату серверов за декабрь и январь, помогите нам пожалуйста в это трудное время. В качестве благодарности мы отключим Вам всю рекламу на сайте (укажите свой ник в строку Ваше имя)!

×
  
Magnet ссылка

[Lady-Sonia] Lady Sonia (Shopping Trip In The Car) [20.07.2012 г., Jeans, Denim, Panties, Masturbation, SATRip] pb.wtf

через торрент pb.wtf

Размер: 408 MB | Добавлен: 8 лет 6 мес. назад | Торрент скачан:87 раз
Скачать  

20-07-2012 09:25 Скачать торрент  

[Lady-Sonia.com]
Lady Sonia
Shopping Trip In The Car
[20.07.2012 г.]

Имя актрисы: Lady Sonia
Название ролика: Shopping Trip In The Car
Подсайт и сайт: Lady-Sonia.com

Год производства: 2012 г.
Жанр: Jeans, Denim, Panties, Masturbation
Продолжительность: 00:27:14

Качество: SATRip
Формат видео: MP4
Видео кодек: AVC
Аудио кодек: AAC
Видео: 25.000 fps, 1 998 Kbps, 720x404
Аудио: 93.1 Kbps, 2 channels, 48.0 KHz

Описание:
Ok, the sun is shining and I am dressed and ready to go so do you want to come to the shops with me?
Loads of guys are always asking if I just dress up and show myself off when I am being “Lady Sonia”
so I thought that it was about time that I took you out shopping with me so that you can see how I like to REALLY “
dress for attention” for yourself! Skin tight jeans, VERY low cut top and spike heels should work well don’t you think?
Long legs, LOADS of 34 “F” cup cleavage spilling out of my little top and even my “thong” panties are on display as
I bend over for EVERYONE to see as well! Come on I am waiting… Come along and watch me show off for everyone to see!

General
Complete name : Shopping Trip In The Car.mp4
Format : MPEG-4
Format profile : Base Media / Version 2
Codec ID : mp42
File size : 408 MiB
Duration : 27mn 14s
Overall bit rate mode : Variable
Overall bit rate : 2 094 Kbps
Encoded date : UTC 2012-05-30 13:47:05
Tagged date : UTC 2012-05-30 13:47:05
Writing library : AVS

Video
ID : 1
Format : AVC
Format/Info : Advanced Video Codec
Format profile : Baseline@L1.3
Format settings, CABAC : No
Format settings, ReFrames : 1 frame
Codec ID : avc1
Codec ID/Info : Advanced Video Coding
Duration : 27mn 14s
Bit rate : 1 998 Kbps
Width : 720 pixels
Height : 404 pixels
Display aspect ratio : 16:9
Frame rate mode : Constant
Frame rate : 25.000 fps
Color space : YUV
Chroma subsampling : 4:2:0
Bit depth : 8 bits
Scan type : Progressive
Bits/(Pixel*Frame) : 0.275
Stream size : 389 MiB (95%)
Language : English
Encoded date : UTC 2012-05-30 13:47:05
Tagged date : UTC 2012-05-30 13:47:05

Audio
ID : 2
Format : AAC
Format/Info : Advanced Audio Codec
Format profile : LC
Codec ID : 40
Duration : 27mn 14s
Bit rate mode : Variable
Bit rate : 93.1 Kbps
Maximum bit rate : 96.0 Kbps
Channel(s) : 2 channels
Channel positions : Front: L R
Sampling rate : 48.0 KHz
Compression mode : Lossy
Stream size : 18.1 MiB (4%)
Language : English
Encoded date : UTC 2012-05-30 13:47:05
Tagged date : UTC 2012-05-30 13:47:05
pb.wtf



pack Скачать через торрент http://i43.fastpic.ru/big/2012/0720/0d/0007159f799da67f0cce0a5330393b0d.jpg Скачать фильм [Lady-Sonia] Lady Sonia через торрент бесплантно в хорошем качестве Описание:Ok, the sun is shining and I am dressed and ready to go so do you want to come to the shops with me?Loads of guys are always ... 3.5 10 4
Info! Золотая раздача, скачанное не засчитывается.
Торрент: Зарегистрирован [2012-07-20 09:25] · скачан: 87 раз
Статус: √ проверено
Размер: 408 MB
Как cкачать? Как скачать через торрент | UTorrent

28-11-2019 20:33  

Отключить всю рекламу на сайте

    Дорогой пользователь! Огромная просьба, поблагодарите релизера, оцените раздачу и оставьте свои комментарий, если Вы скачали через торрент бесплатно! Внесите свою лепту в развитие PiratBit!
    Комментировать посты могут только пользователи прошедшие не сложную регистрацию
    Показать сообщения:    

    через торрент
    Скачать бесплатно
    скачать торрент
    смотреть онлайн
    Cкачать фильм бесплатно
    скачать торрент в хорошем качестве
    смотреть онлайн бесплатно в хорошем качестве


    Вы не можете начинать темы
    Вы не можете отвечать на сообщения
    Вы не можете редактировать свои сообщения
    Вы не можете удалять свои сообщения
    Вы не можете голосовать в опросах
    Вы не можете прикреплять файлы к сообщениям
    Вы можете скачивать файлы