Ссылка на приватное зеркало нашего сайта всего за 1$. Внимание количество ограничено!!!

2 сезон

iTunes

1 сезон

1

2 сезон

2 сезон

iTunes

1 сезон

RePack

30

Ultimate

ВАЖНО

ИГРА 18+

pack

RePack

MK11
pack

Забери бонус

RePack

jed

!!Акция!!

Alien_Rage

RePack

fifa19

RePack

Assassins Creed: Odyssey

RePack

NEED FOR SPEED™ PAYBACK

4 сезон

9 сезон

Бесстыжие 9 сезон

Все сериалы

все сериалы на PB.wtf

RePack

FAR CRY 5
  

Топовые Анальные Модели Рокко / Rocco`s Top Anal Model (Rocco Siffredi, Evil Angel) [2012 г., Gonzo, Anal, DVD9] pb.wtf

Топовые Анальные Модели Рокко через торрент pb.wtf

Размер: 7.47 GB | Добавлен: 8 лет 4 мес. назад | Торрент скачан:480 раз
Скачать  

20-07-2012 10:43 Топовые Анальные Модели Рокко Скачать торрент  

Rocco`s Top Anal Model Год выпуска : 2012
Страна :

Режиссер : Rocco Siffredi
Студиа : Evil Angel
Язык :

Продолжительность : 02:47:33

Жанр : Gonzo, Anal Abbie Cat, Ivana Sugar, Wild Cat, Milla, Logan, Abby Porn industry legend Rocco Siffredi knows what it takes for an ambitious young lady to reach the top of her profession.
For Roccos Top Anal Models, the big-dicked superstar has assembled a gorgeous cast of the most promising sluts in the world of ass fucking his picks for the anal queens of the future.
Качество : DVD9
Формат : DVD Video

Видео кодек : MPEG2
Аудио кодек : AC3
Видео : MPEG2 Video 720x480 (16:9) 29.97fps 7500kbps
Аудио : Dolby AC3 48000Hz stereo 192kbp

Общее
Полное имя :Roccos.Top.Anal.Model.XXX.NTSC.DVD9\VIDEO_TS\VTS_01_1.VOB
Формат : MPEG-PS
Размер файла : 1024 Мбайт
Продолжительность : 24 м.
Режим общего битрейта : Переменный
Общий поток : 5822 Кбит/сек

Видео
Идентификатор : 224 (0xE0)
Формат : MPEG Video
Версия формата : Version 2
Профиль формата : Main@Main
Параметр BVOP формата : Да
Параметр матрицы формата : Выборочная
Параметр GOP формата : M=3, N=15
Продолжительность : 24 м.
Вид битрейта : Переменный
Битрейт : 5514 Кбит/сек
Максимальный битрейт : 7500 Кбит/сек
Ширина : 720 пикселей
Высота : 480 пикселей
Соотношение сторон : 16:9
Частота кадров : 29,970 кадров/сек
Стандарт вещания : NTSC
Цветовое пространство : YUV
Субдискретизация насыщенности : 4:2:0
Битовая глубина : 8 бит
Тип развёртки : Чересстрочная
Порядок развёртки : Верхнее поле первое
Метод сжатия : С потерями
Бит/(Пиксели*Кадры) : 0.532
Размер потока : 970 Мбайт (95%)
Основные цвета : SMPTE 170M
Характеристики трансфера : SMPTE 170M
Коэффициенты матрицы : SMPTE 170M

Аудио
Идентификатор : 189 (0xBD)-128 (0x80)
Формат : AC-3
Формат/Информация : Audio Coding 3
Расширение режима : CM (complete main)
Параметр Endianness формата : Big
Режим смешивания : DVD-Video
Продолжительность : 24 м.
Вид битрейта : Постоянный
Битрейт : 192 Кбит/сек
Каналы : 2 канала
Расположение каналов : Front: L R
Частота : 48,0 КГц
Битовая глубина : 16 бит
Метод сжатия : С потерями
Размер потока : 33,8 Мбайт (3%)

pb.wtf



pack Скачать Топовые Анальные Модели Рокко через торрент http://i41.fastpic.ru/big/2012/0718/06/de9fec674676d5539e95f1f37208de06.png Скачать фильм Топовые Анальные Модели Рокко через торрент бесплантно в хорошем качестве Год выпуска : 2012 Страна : Режиссер : Rocco Siffredi Студиа : Evil Angel Язык : Продолжительность : 02:47:33 Жанр : Gonzo, Anal ... 9.4 10 14
Info! Золотая раздача, скачанное не засчитывается.
Торрент: Зарегистрирован [2012-07-20 10:43] · скачан: 480 раз
Статус: √ проверено
Размер: 7.47 GB
Как cкачать? Как скачать Топовые Анальные Модели Рокко через торрент | qTorrent



Последний раз редактировалось: лисяра (2012-07-23 18:58), всего редактировалось 2 раз(а)

28-11-2019 20:33  

Отключить всю рекламу на сайте

20-07-2012 10:50 Топовые Анальные Модели Рокко Скачать торрент  

Фрилич до конца лета - Скаченное не засчитывается!!! pb.wtf



pack

20-07-2012 12:42 Топовые Анальные Модели Рокко Скачать торрент  

лис26
Продолжительность: 02:47:23 ???pb.wtf



pack

20-07-2012 12:49 Топовые Анальные Модели Рокко Скачать торрент  

Pir@tya2010
Гоню :wacko2: исправил pb.wtf



pack

20-07-2012 12:52 Топовые Анальные Модели Рокко Скачать торрент  

лис26
спасибо за красивый фильм и за красивых девчонок в нём!)pb.wtf



pack

20-07-2012 12:55 Топовые Анальные Модели Рокко Скачать торрент  

Pir@tya2010
Спасибо!!! за спасибо... pb.wtf



pack

15-04-2013 16:04 Топовые Анальные Модели Рокко Скачать торрент  

Народ встаньте на раздачу
Ну хоть кто-нить!!!!!!!!!!!!!1pb.wtf



pack
    Дорогой пользователь! Огромная просьба, поблагодарите релизера, оцените раздачу и оставьте свои комментарий, если Вы скачали Топовые Анальные Модели Рокко через торрент бесплатно! Внесите свою лепту в развитие PiratBit!
    Комментировать посты могут только пользователи прошедшие не сложную регистрацию
    Показать сообщения:    

    Топовые Анальные Модели Рокко через торрент
    Скачать бесплатно Топовые Анальные Модели Рокко
    Топовые Анальные Модели Рокко скачать торрент
    Топовые Анальные Модели Рокко смотреть онлайн
    Cкачать фильм Топовые Анальные Модели Рокко бесплатно
    Топовые Анальные Модели Рокко скачать торрент в хорошем качестве
    Топовые Анальные Модели Рокко смотреть онлайн бесплатно в хорошем качестве


    Вы не можете начинать темы
    Вы не можете отвечать на сообщения
    Вы не можете редактировать свои сообщения
    Вы не можете удалять свои сообщения
    Вы не можете голосовать в опросах
    Вы не можете прикреплять файлы к сообщениям
    Вы можете скачивать файлы