Ссылка на приватное зеркало нашего сайта всего за 1$. Внимание количество ограничено!!!

2 сезон

iTunes

1 сезон

1

iTunes

iTunes

iTunes

1 сезон

RePack

30

ИГРА 18+

pack

ВАЖНО

!!Акция!!

Alien_RageХит недели

RePack

MK11
pack

Забери бонус

RePack

jed

!!Акция!!

Alien_Rage

RePack

fifa19

RePack

Assassins Creed: Odyssey

RePack

NEED FOR SPEED™ PAYBACK

4 сезон

9 сезон

Бесстыжие 9 сезон

Все сериалы

все сериалы на PB.wtf

RePack

FAR CRY 5
  

Выжить с волками / Surviving with Wolves / Survivre avec les loups (Вера Бельмон / Véra Belmont) [2007, Франция - Бельгия, Драма, BDRip 720p](Профессиональный (многоголосый закадровый) (R5) pb.wtf

Выжить с волками через торрент pb.wtf

Размер: 4.76 GB | Добавлен: 8 лет 3 мес. назад | Торрент скачан:60 раз
Скачать  

22-07-2012 16:13 Выжить с волками Скачать торрент  


Выжить с волками / Surviving with Wolves / Survivre avec les loups

Год:
2007
Страна:
Франция / Бельгия
Жанр:
Драма
Продолжительность: 02:03:28
Перевод: Профессиональный (многоголосый закадровый) (R5)
Cубтитры: Русские / французские (хард на русские фразы)
Описание:
1941 год. Родители девочки Миши, скрывавшиеся в Бельгии, депортированы. Ребенок решает бежать на восток и найти их. Чтобы выжить, девочке приходится красть еду и одежду. В лесу ее спасает от гибели пара волков, переняв повадки которых, она становится полноправным членом стаи. За четыре года скитаний по охваченной огнем и залитой кровью Европе девочка открывает для себя звериную жестокость людей и доброту диких животных…
Режиссер: Вера Бельмон / Véra Belmont
В ролях:
Матильда Гоффар, Яэль Абекассис, Ги Бедо, Мишель Бернье, Бенно Фюрманн, Анн-Мари Филип, Франк де ла Персонн
Доп. информация:
Содержание BR-диска и DVD (R5) различно -> отсутствует несколько минут перевода
Качество: BDRip
[Survivre Avec Les Loups FRENCH 720p BluRay x264-FHD]
Формат: MKV
Видео кодек: H.264
Аудио кодек: AC3 / DTS
Видео: MPEG4 Video (H264); 1280x544; 24.000 fps; 4299 kbps
Аудио:
Russian (AC3; 48000 Hz; 6 ch; 448 kbps) / french (DTS; 48000 Hz; 6 ch; 755 kbps)
General
Complete name : Vyzhit.s.volkami.2007.DC.BDRip.720p.x264.mkv
Format : Matroska
File size : 4.76 GiB
Duration : 2h 3mn
Overall bit rate : 5 518 Kbps
Movie name : Выжить с волками / Surviving with Wolves / Survivre avec les loups (2007) BDRip 720p
Encoded date : UTC 2010-10-01 12:50:54
Writing application : mkvmerge v4.0.0 ('The Stars were mine') сборка от Jun 5 2010 17:44:09
Writing library : libebml v1.0.0 + libmatroska v1.0.0
Video
ID : 1
Format : AVC
Format/Info : Advanced Video Codec
Format profile : High@L3.1
Format settings, CABAC : Yes
Format settings, ReFrames : 3 frames
Codec ID : V_MPEG4/ISO/AVC
Duration : 2h 3mn
Bit rate : 4 299 Kbps
Width : 1 280 pixels
Height : 544 pixels
Display aspect ratio : 2.35:1
Frame rate : 24.000 fps
Color space : YUV
Chroma subsampling : 4:2:0
Bit depth : 8 bits
Scan type : Progressive
Bits/(Pixel*Frame) : 0.257
Stream size : 3.63 GiB (76%)
Title : AVC x264; 1280x544; 24.000 fps; 4299 kbps
Writing library : x264 core 59 r826M 138601d
Encoding settings : cabac=1 / ref=1 / deblock=1:0:0 / analyse=0x3:0x113 / me=hex / subme=5 / me-prepass=0 / brdo=0 / mixed_ref=0 / me_range=16 / chroma_me=1 / trellis=1 / 8x8dct=1 / cqm=0 / deadzone=21,11 / chroma_qp_offset=0 / threads=3 / nr=0 / decimate=1 / mbaff=0 / bframes=3 / b_pyramid=1 / b_adapt=1 / b_bias=0 / direct=2 / wpredb=0 / bime=0 / keyint=250 / keyint_min=25 / scenecut=40(pre) / rc=2pass / bitrate=4299 / ratetol=1.0 / rceq='blurCplx^(1-qComp)' / qcomp=1.00 / qpmin=10 / qpmax=51 / qpstep=4 / cplxblur=20.0 / qblur=0.5 / ip_ratio=1.40 / pb_ratio=1.30 / aq=2:1.00
Language : French
Audio #1
ID : 2
Format : AC-3
Format/Info : Audio Coding 3
Mode extension : CM (complete main)
Codec ID : A_AC3
Duration : 2h 3mn
Bit rate mode : Constant
Bit rate : 448 Kbps
Channel(s) : 6 channels
Channel positions : Front: L C R, Side: L R, LFE
Sampling rate : 48.0 KHz
Bit depth : 16 bits
Stream size : 396 MiB (8%)
Title : MVO - AC3; 48000 Hz; 6 ch; 448 kbps
Language : Russian
Audio #2
ID : 3
Format : DTS
Format/Info : Digital Theater Systems
Codec ID : A_DTS
Duration : 2h 3mn
Bit rate mode : Constant
Bit rate : 755 Kbps
Channel(s) : 6 channels
Channel positions : Front: L C R, Side: L R, LFE
Sampling rate : 48.0 KHz
Bit depth : 16 bits
Stream size : 666 MiB (14%)
Title : FR_Original - DTS; 48000 Hz; 6 ch; 755 kbps
Language : French
Text
ID : 4
Format : UTF-8
Codec ID : S_TEXT/UTF8
Codec ID/Info : UTF-8 Plain Text
Title : RU_Subtitles
Language : Russian
pb.wtf



Скачать Выжить с волками через торрент http://i11.fastpic.ru/big/2010/1028/c9/ec8b1a4098f06b31612f3d4592c89dc9.jpg Скачать фильм Выжить с волками через торрент бесплантно в хорошем качестве Описание: 1941 год. Родители девочки Миши, скрывавшиеся в Бельгии, депортированы. Ребенок решает бежать на восток и найти их. Чтобы выжить, ... 10 10 1
Info! Золотая раздача, скачанное не засчитывается.
Торрент: Зарегистрирован [2012-07-22 16:13] · скачан: 60 раз
Статус: √ проверено
Размер: 4.76 GB
Как cкачать? Как скачать Выжить с волками через торрент | qTorrent

28-11-2019 20:33  

Отключить всю рекламу на сайте

    Дорогой пользователь! Огромная просьба, поблагодарите релизера, оцените раздачу и оставьте свои комментарий, если Вы скачали Выжить с волками через торрент бесплатно! Внесите свою лепту в развитие PiratBit!
    Комментировать посты могут только пользователи прошедшие не сложную регистрацию
    Показать сообщения:    

    Выжить с волками через торрент
    Скачать бесплатно Выжить с волками
    Выжить с волками скачать торрент
    Выжить с волками смотреть онлайн
    Cкачать фильм Выжить с волками бесплатно
    Выжить с волками скачать торрент в хорошем качестве
    Выжить с волками смотреть онлайн бесплатно в хорошем качестве


    Вы не можете начинать темы
    Вы не можете отвечать на сообщения
    Вы не можете редактировать свои сообщения
    Вы не можете удалять свои сообщения
    Вы не можете голосовать в опросах
    Вы не можете прикреплять файлы к сообщениям
    Вы можете скачивать файлы