2 сезон

iTunes

MVO

1

2 сезон

iTunes

iTunes

1 сезон

RePack

30

Новинка

ВАЖНО

ИГРА 18+

pack

RePack

MK11
pack

Легкие деньги

RePack

jed

RePack

fifa19

RePack

RDR2

RePack

NEED FOR SPEED™ PAYBACK

4 сезон

9 сезон

Бесстыжие 9 сезон

Все сериалы

все сериалы на PB.wtf

RePack

FAR CRY 5

Anonymous, добрый день, мы не успеваем собрать деньги на оплату серверов за декабрь и январь, помогите нам пожалуйста в это трудное время. В качестве благодарности мы отключим Вам всю рекламу на сайте (укажите свой ник в строку Ваше имя)!

×
  
Magnet ссылка

Сафари 3D / 3D Safari: Africa (Дэвид Кин) [2011 г., реальное ТВ, приключения, BDRip (1080p), VO] pb.wtf

Сафари 3D через торрент pb.wtf

Размер: 12.75 GB | Добавлен: 8 лет 5 мес. назад | Торрент скачан:233 раза
Скачать  

23-07-2012 15:25 Сафари 3D Скачать торрент  

Сафари 3D / 3D Safari: Africa
Год выпуска: 2011
Страна: США
Жанр: реальное ТВ, приключения
Продолжительность: 01:26:24
Перевод: Профессиональный (одноголосый)
Субтитры: Русские

Режиссер: Дэвид Кин
Продюссер: Arcadia Berjonneau, Sara Mora Ivicevich, Дэвид Кин
Бюджет: $800 000
Премьера в мире: 27 февраля 2011

Описание: Присоединяйтесь к биологу Льеслу, коренному жителю Африки, который станет вашим гидом по сафари-парку. Вы встретитесь с Большой Африканской Пятеркой: львом, леопардом, слоном, носорогом и буйволом. Вы ощутите чудесную красоту этой земли, оцените удивительную красоту и грацию экзотических животных в местах их естественного обитания.
Качество: BDRip (1080p)
Формат: MKV,
Формат 3D: Half SideBySide / Горизонтальная анаморфная стереопара
Порядок ракурсов: Параллельная пара
Видео кодек: H.264x
Аудио кодек: AC3,DTS
Видео: AVC at 18,7 Мбит/сек : 1920 x 1080 (1.778) at 23.976 fps
Аудио#1: AC-3 at 640 Кбит/сек : 6 каналов, 48,0 КГц Русский
Аудио#2: AC-3 at 448 Кбит/сек : 6 каналов, 48,0 КГц английский
Аудио#3: DTS at 755 Кбит/сек: 6 каналов, 48,0 КГц Русский
Уникальный идентификатор : 211713846791327560237441541255652086739 (0x9F469A8D3DF82F1A8AFED57AB56693D3)
Полное имя : C:\Documents and Settings\Admin\Рабочий стол\торы\Cafari.3D.2011.x264.BDRip.1080p.mkv
Формат : Matroska
Размер файла : 12,7 Гбайт
Продолжительность : 1 ч. 26 м.
Общий поток : 21,0 Мбит/сек
Название фильма : 3DRip-presents
Дата кодирования : UTC 2012-07-20 13:15:48
Программа кодирования : mkvmerge v3.4.0 ('Rapunzel') сборка от May 15 2010 09:38:20
Библиотека кодирования : libebml v0.8.0 + libmatroska v0.9.0

Видео
Идентификатор : 1
Формат : AVC
Формат/Информация : Advanced Video Codec
Профиль формата : High@L4.1
Параметр CABAC формата : Да
Параметр ReFrames формата : 2 кадра
Параметры GOP формата : M=1, N=2
Идентификатор кодека : V_MPEG4/ISO/AVC
Продолжительность : 1 ч. 26 м.
Битрейт : 18,7 Мбит/сек
Ширина : 1920 пикс.
Высота : 1080 пикс.
Соотношение сторон : 16:9
Частота кадров : 23,976 кадр/сек
Цветовое пространство : YUV
Подвыборка цветности : 4:2:0
Битовая глубина : 8 бит
Тип развёртки : Прогрессивная
Бит/(Пиксели*Кадры) : 0.377
Размер потока : 11,4 Гбайт (89%)
Заголовок : 3DRip-by-kinozal.tv
Библиотека кодирования : x264 core
Основные цвета : BT.709-5, BT.1361, IEC 61966-2-4, SMPTE RP177
Характеристики трансфера : BT.709-5, BT.1361
Коэффициенты матрицы : BT.709-5, BT.1361, IEC 61966-2-4 709, SMPTE RP177

Аудио #1
Идентификатор : 2
Формат : AC-3
Формат/Информация : Audio Coding 3
Расширение режима : CM (complete main)
Идентификатор кодека : A_AC3
Продолжительность : 1 ч. 26 м.
Вид битрейта : Постоянный
Битрейт : 640 Кбит/сек
Каналы : 6 каналов
Расположение каналов : Front: L C R, Side: L R, LFE
Частота : 48,0 КГц
Битовая глубина : 16 бит
Метод сжатия : С потерями
Размер потока : 398 Мбайт (3%)
Заголовок : 3DRip-by-kinozal.tv
Язык : Russian

Аудио #2
Идентификатор : 3
Формат : AC-3
Формат/Информация : Audio Coding 3
Расширение режима : CM (complete main)
Идентификатор кодека : A_AC3
Продолжительность : 1 ч. 26 м.
Вид битрейта : Постоянный
Битрейт : 448 Кбит/сек
Каналы : 6 каналов
Расположение каналов : Front: L C R, Side: L R, LFE
Частота : 48,0 КГц
Битовая глубина : 16 бит
Метод сжатия : С потерями
Размер потока : 279 Мбайт (2%)
Заголовок : 3DRip-by-kinozal.tv
Язык : English

Аудио #3
Идентификатор : 4
Формат : DTS
Формат/Информация : Digital Theater Systems
Идентификатор кодека : A_DTS
Продолжительность : 1 ч. 26 м.
Вид битрейта : Постоянный
Битрейт : 755 Кбит/сек
Каналы : 6 каналов
Расположение каналов : Front: L C R, Side: L R, LFE
Частота : 48,0 КГц
Битовая глубина : 16 бит
Метод сжатия : С потерями
Размер потока : 469 Мбайт (4%)
Заголовок : 3DRip-by-kinozal.tv
Язык : Russian

Текст
Идентификатор : 5
Формат : VobSub
Режим смешивания : zlib
Идентификатор кодека : S_VOBSUB
Идентификатор кодека/Информация : The same subtitle format used on DVDs
Заголовок : 3DRip-by-kinozal.tv
Язык : Russian

Меню
00:00:00.000 : en:(01)00:00:00:000
00:10:59.992 : en:(02)00:10:59:992
00:24:57.704 : en:(03)00:24:57:704
00:36:18.342 : en:(04)00:36:18:342
00:50:08.171 : en:(05)00:50:08:171
01:01:32.730 : en:(06)01:01:32:730
01:16:01.473 : en:(07)01:16:01:473
01:26:20.758 : en:(08)01:26:20:758
01:26:57.795 : en:(09)01:26:57:795

pb.wtf



Скачать Сафари 3D через торрент http://i42.fastpic.ru/big/2012/0721/ad/da36227661b211e1ff5ed33411f400ad.jpg Скачать фильм Сафари 3D через торрент бесплантно в хорошем качестве Описание: Присоединяйтесь к биологу Льеслу, коренному жителю Африки, который станет вашим гидом по сафари-парку. Вы встретитесь с Большой ... 10 10 1
Info! Золотая раздача, скачанное не засчитывается.
Торрент: Зарегистрирован [2012-07-23 15:25] · скачан: 233 раз
Статус: √ проверено
Размер: 12.75 GB
Как cкачать? Как скачать Сафари 3D через торрент | UTorrent

28-11-2019 20:33  

Отключить всю рекламу на сайте

29-07-2012 09:43 Сафари 3D Скачать торрент  

как эфекты ребята ? :troll:pb.wtf



    Дорогой пользователь! Огромная просьба, поблагодарите релизера, оцените раздачу и оставьте свои комментарий, если Вы скачали Сафари 3D через торрент бесплатно! Внесите свою лепту в развитие PiratBit!
    Комментировать посты могут только пользователи прошедшие не сложную регистрацию
    Показать сообщения:    

    Сафари 3D через торрент
    Скачать бесплатно Сафари 3D
    Сафари 3D скачать торрент
    Сафари 3D смотреть онлайн
    Cкачать фильм Сафари 3D бесплатно
    Сафари 3D скачать торрент в хорошем качестве
    Сафари 3D смотреть онлайн бесплатно в хорошем качестве


    Вы не можете начинать темы
    Вы не можете отвечать на сообщения
    Вы не можете редактировать свои сообщения
    Вы не можете удалять свои сообщения
    Вы не можете голосовать в опросах
    Вы не можете прикреплять файлы к сообщениям
    Вы можете скачивать файлы