Ссылка на приватное зеркало нашего сайта всего за 1$. Внимание количество ограничено!!!

2 сезон

iTunes

1 сезон

1

iTunes

iTunes

iTunes

1 сезон

RePack

30

ИГРА 18+

pack

ВАЖНО

!!Акция!!

Alien_RageХит недели

RePack

MK11
pack

Забери бонус

RePack

jed

!!Акция!!

Alien_Rage

RePack

fifa19

RePack

Assassins Creed: Odyssey

RePack

NEED FOR SPEED™ PAYBACK

4 сезон

9 сезон

Бесстыжие 9 сезон

Все сериалы

все сериалы на PB.wtf

RePack

FAR CRY 5
  

Чистая проба (Алексей Праздников) [2011 г., Детектив, Приключения, SATRip] pb.wtf

Чистая проба через торрент pb.wtf

Размер: 3.91 GB | Добавлен: 8 лет 2 мес. назад | Торрент скачан:258 раз
Скачать  

23-07-2012 17:50 Чистая проба Скачать торрент  

Чистая проба

Год выпуска: 2011
Страна: Россия, «Всемирные Русские Студии» (RWS), Студия "Монолог"
Жанр: Детектив, Приключения
Продолжительность: 8 x ~ 00:48:00
Перевод: Не требуется

Режиссер: Алексей Праздников
Сценарий: Евгений Козловский



В ролях: Алексей Макаров, Татьяна Арнтгольц, Евгений Пронин, Даниил Кокин, Егор Бакулин, Иван Жидков, Алексей Барабаш, Светлана Смирнова, Кристина Кузьмина, Егор Томошевский, Олег Волков, Евгений Катаев, Олег Ким, Дмитрий Смородский, Андрей Зибров, Раиса Рязанова, Сергей Паршин, Юрий Ицков, Вера Смолина, Данил Пьянзин, Дин Фан, Вадим Лымарь

Описание: Скромный почвовед Юлия не подозревала, чем обернутся ее исследования в окрестностях маленького сибирского городка. Совершенно неожиданно на девушку совершают нападение, похитив пробы почв, не имеющие, казалось бы, никакой ценности. Единственный свидетель случившегося погибает при загадочных обстоятельствах. Друг погибшего, Андрей (Евгений Пронин), берется за поиски виновных. Познакомившись с симпатичной ему Юлей, он помогает девушке противостоять начальнику райотдела милиции - Шерифу. Имея неограниченное влияние, тот стремится выдворить из города сначала Юлю, а потом и Андрея, фабрикуя против него улики и обвиняя в убийстве. С огромным трудом герою удается уйти от преследования...

Качество: SATRip
Формат: AVI
Видео кодек: XviD
Аудио кодек: MP3
Видео: XviD, 704x384, 25fps, ~1350kbps, 0.20bit/pixel
Аудио: MPEG Audio Layer 3, 48000Hz, stereo, 128kbps
скриншот   скриншот   скриншот   скриншот   скриншот  

Общее
Формат : AVI
Формат/Информация : Audio Video Interleave
Размер файла : 500 Мбайт
Продолжительность : 47 м.
Общий поток : 1462 Кбит/сек
Программа кодирования : VirtualDubMod 1.5.10.3 | www.virtualdub-fr.org || (build 2550/release)
Библиотека кодирования : VirtualDubMod build 2550/release
Видео
Идентификатор : 0
Формат : MPEG-4 Visual
Профиль формата : Advanced Simple@L5
Параметр BVOP формата : 1
Параметр QPel формата : Нет
Параметр GMC формата : Без точки перехода
Параметр матрицы формата : Default (MPEG)
Идентификатор кодека : XVID
Идентификатор кодека/Подсказка : XviD
Продолжительность : 47 м.
Битрейт : 1324 Кбит/сек
Ширина : 704 пикс.
Высота : 384 пикс.
Соотношение сторон : 16:9
Частота кадров : 25,000 кадр/сек
Цветовое пространство : YUV
Подвыборка цветности : 4:2:0
Битовая глубина : 8 бит
Тип развёртки : Прогрессивная
Метод сжатия : С потерями
Бит/(Пиксели*Кадры) : 0.196
Размер потока : 453 Мбайт (91%)
Библиотека кодирования : XviD 1.2.1 (UTC 2008-12-04)
Аудио
Идентификатор : 1
Формат : MPEG Audio
Версия формата : Version 1
Профиль формата : Layer 3
Идентификатор кодека : 55
Идентификатор кодека/Подсказка : MP3
Продолжительность : 47 м.
Вид битрейта : Постоянный
Битрейт : 128 Кбит/сек
Каналы : 2 канала
Частота : 48,0 КГц
Метод сжатия : С потерями
Размер потока : 43,8 Мбайт (9%)
Выравнивание : Соединение по промежуткам
Продолжительность промежутка : 40 мс. (1,00 видеокадр)
Время предзагрузки промежутка : 504 ms
Библиотека кодирования : LAME3.98r
Настройки программы : -m s -V 4 -q 2 -lowpass 17 -b 128

pb.wtf



Скачать Чистая проба через торрент http://pic.kartinco.top/images/1/ibjf63rrwh.jpg Скачать фильм Чистая проба через торрент бесплантно в хорошем качестве Описание: Скромный почвовед Юлия не подозревала, чем обернутся ее исследования в окрестностях маленького сибирского городка. Совершенно ... 10 10 2
Info! Золотая раздача, скачанное не засчитывается.
Торрент: Зарегистрирован [2012-07-23 17:50] · скачан: 258 раз
Статус: √ проверено
Размер: 3.91 GB
Как cкачать? Как скачать Чистая проба через торрент | qTorrent

% Раздел Тема Автор DL S | L
Наши сериалы [ 3.96 GB ] Чистая проба / Сезон: 1 Серии: 8 из 8 [2011 SATRip] -=Cherry=- Скачать
1 | 0

28-11-2019 20:33  

Отключить всю рекламу на сайте

14-08-2012 13:11 Чистая проба Скачать торрент  

очень хороший фильм ! мне понравилсяpb.wtf



07-01-2013 10:00 Чистая проба Скачать торрент  

кто нибудь раздавать будет на кой выкладывать если скорости нет раздачи нетpb.wtf



    Дорогой пользователь! Огромная просьба, поблагодарите релизера, оцените раздачу и оставьте свои комментарий, если Вы скачали Чистая проба через торрент бесплатно! Внесите свою лепту в развитие PiratBit!
    Комментировать посты могут только пользователи прошедшие не сложную регистрацию
    Показать сообщения:    

    Чистая проба через торрент
    Скачать бесплатно Чистая проба
    Чистая проба скачать торрент
    Чистая проба смотреть онлайн
    Cкачать фильм Чистая проба бесплатно
    Чистая проба скачать торрент в хорошем качестве
    Чистая проба смотреть онлайн бесплатно в хорошем качестве


    Вы не можете начинать темы
    Вы не можете отвечать на сообщения
    Вы не можете редактировать свои сообщения
    Вы не можете удалять свои сообщения
    Вы не можете голосовать в опросах
    Вы не можете прикреплять файлы к сообщениям
    Вы можете скачивать файлы