Ссылка на приватное зеркало всего за 1$. Внимание количество ограничено!!!

iTunes

iTunes

iTunes

1

iTunes

iTunes

iTunes

WEBRip

iTunes

30
pack

$ от Little Big

ВАЖНО

!!Акция!!

Alien_RageХит недели

RePack

Resident Evil 21

ИГРА 18+

pack

RePack

jed

!!Акция!!

Alien_Rage

RePack

fifa19

RePack

Assassins Creed: Odyssey

RePack

NEED FOR SPEED™ PAYBACK

4 сезон

9 сезон

Бесстыжие 9 сезон

Все сериалы

все сериалы на PB.wtf

RePack

FAR CRY 5
  

Ванечка (Елена Николаева) [2007 г., мелодрама, драма, DVDRip] pb.wtf

Ванечка через торрент pb.wtf

Размер: 1.34 GB | Добавлен: 8 лет назад | Торрент скачан:53 раза
Скачать  

24-07-2012 09:53 Ванечка Скачать торрент  

Ванечка

Год выпуска: 2007
Страна: Россия
Жанр: мелодрама, драма
Продолжительность: 01:43:13
Перевод: Не требуется

Режиссер: Елена Николаева



В ролях: Елена Великанова, Андрей Панин, Максим Галкин, Ольга Дроздова, Валерий Баринов, Армен Джигарханян, Нина Русланова, Евдокия Германова, Алиса Гребенщикова

Описание: 1998 год. Время перемен. Но главная героиня как будто не замечает того, что происходит вокруг. Ее жизнь резко изменилась – у нее появился Ванечка. Наивная красавица Надя приезжает в Москву поступать во ВГИК. Но происходит страшное: единственные московские знакомые Нади погибают в автокатастрофе, и главная героиня остается в чужом городе с сиротой Ванечкой на руках. Малыш станет самым близким для Нади человеком.

Доп. информация: Президентский приз фестиваля Зеркало вручен Инной Михайловной Чуриковой, Золотая ладья 15-го кинофестиваля Окно в Европу в Выборге в конкурсе Выборгский счет, лучшая женская роль актрисы Елены Великановой на фестивале Фонда им. Приемыхова

Качество: DVDRip
Формат: AVI
Видео кодек: XviD
Аудио кодек: MP3
Видео: 688x368 (1.87:1), 1653 kbps avg, 25.000 fps, 0.261 bit/pixl, XviD MPEG-4
Аудио: 48 kHz, MPEG Layer 3, 192.00 kbps avg
скриншот   скриншот   скриншот   скриншот   скриншот  

Общее
Format : AVI
Format/Info : Audio Video Interleave
File size : 1,34 Гбайт
Duration : 1 ч. 43 м.
Overall bit rate : 1855 Кбит/сек
Writing application : FairUse Wizard - http://fairusewizard.com
Writing library : The best and REALLY easy backup tool

Видео
ID : 0
Format : MPEG-4 Visual
Format profile : Advanced Simple@L5
Format settings, BVOP : 1
Format settings, QPel : Нет
Format settings, GMC : Без точки перехода
Format settings, Matrix : Default (MPEG)
Muxing mode : Сжатый битовый поток
Codec ID : XVID
Codec ID/Hint : XviD
Duration : 1 ч. 43 м.
Bit rate : 1654 Кбит/сек
Width : 688 пикселей
Height : 368 пикселей
Display aspect ratio : 1,85:1
Frame rate : 25,000 кадров/сек
Color space : YUV
Chroma subsampling : 4:2:0
Bit depth : 8 бит
Scan type : Прогрессивная
Compression mode : С потерями
Bits/(Pixel*Frame) : 0.261
Stream size : 1,19 Гбайт (89%)
Writing library : XviD 1.2.0.dev47 (UTC 2006-11-01)

Аудио
ID : 1
Format : MPEG Audio
Format version : Version 1
Format profile : Layer 3
Mode : Joint stereo
Codec ID : 55
Codec ID/Hint : MP3
Duration : 1 ч. 43 м.
Bit rate mode : Постоянный
Bit rate : 192 Кбит/сек
Channel(s) : 2 канала
Sampling rate : 48,0 КГц
Compression mode : С потерями
Stream size : 142 Мбайт (10%)
Alignment : Соединение по промежуткам
Interleave, duration : 40 мс. (1,00 видеокадр)
Interleave, preload duration : 504 мс.
Writing library : LAME3.97b
Encoding settings : -m j -V 4 -q 2 -lowpass 18.6 -b 192

pb.wtf



Скачать Ванечка через торрент http://pic.kartinco.top/images/1/xy9k9bps8s.jpg Скачать фильм Ванечка через торрент бесплантно в хорошем качестве Описание: 1998 год. Время перемен. Но главная героиня как будто не замечает того, что происходит вокруг. Ее жизнь резко изменилась – у нее ... 10 10 1
Info! Золотая раздача, скачанное не засчитывается.
Торрент: Зарегистрирован [2012-07-24 09:53] · скачан: 53 раз
Статус: √ проверено
Размер: 1.34 GB
Как cкачать? Как скачать Ванечка через торрент | qTorrent

% Раздел Тема Автор DL S | L
Наши фильмы, до 2010 [ 1.37 GB ] Ванечка [2007 DVDRip] SERGEICH Скачать
1 | 0


Последний раз редактировалось: owFile (2012-07-24 10:04), всего редактировалось 2 раз(а)

28-11-2019 20:33  

Отключить всю рекламу на сайте

24-07-2012 09:55 Ванечка Скачать торрент  

Фильм интересный! Кому нужно,залью лицензионный DVD. Размер примерно будет 6,7Гбpb.wtf



24-07-2012 11:01 Ванечка Скачать торрент  

путный фильмpb.wtf



    Дорогой пользователь! Огромная просьба, поблагодарите релизера, оцените раздачу и оставьте свои комментарий, если Вы скачали Ванечка через торрент бесплатно! Внесите свою лепту в развитие PiratBit!
    Комментировать посты могут только пользователи прошедшие не сложную регистрацию
    Показать сообщения:    

    Ванечка через торрент
    Скачать бесплатно Ванечка
    Ванечка скачать торрент
    Ванечка смотреть онлайн
    Cкачать фильм Ванечка бесплатно
    Ванечка скачать торрент в хорошем качестве
    Ванечка смотреть онлайн бесплатно в хорошем качестве


    Вы не можете начинать темы
    Вы не можете отвечать на сообщения
    Вы не можете редактировать свои сообщения
    Вы не можете удалять свои сообщения
    Вы не можете голосовать в опросах
    Вы не можете прикреплять файлы к сообщениям
    Вы можете скачивать файлы