1 сезон

3 сезон

iTunes

1

iTunes

MVO

iTunes

13

1 сезон

RePack

30

Deluxe

pack

Лицензия

ВАЖНО

ИГРА 18+

pack

RePack

MK11

RePack

jed

RePack

fifa19

RePack

RDR2

RePack

NEED FOR SPEED™ PAYBACK

4 сезон

9 сезон

Бесстыжие 9 сезон

Все сериалы

все сериалы на PB.wtf

RePack

FAR CRY 5

Anonymous, доброй ночи, мы катастрофически не успеваем собрать деньги на оплату серверов, помогите нам пожалуйста 5,10,15р., для нас важна любая помощь . В качестве благодарности мы отключим Вам всю рекламу на сайте (укажите свой ник в строку Ваше имя)!

×
  
Magnet ссылка

Королевство полной луны / Moonrise Kingdom (Уэс Андерсон / Wes Anderson) [2012, драма, комедия, DVD9] R5 pb.wtf

Королевство полной луны через торрент pb.wtf

Размер: 6.85 GB | Добавлен: 8 лет 11 мес. назад | Торрент скачан:78 раз
Скачать  

28-07-2012 09:56 Королевство полной луны Скачать торрент  


Королевство полной луны / Moonrise Kingdom
Страна: США
Студия: American Empirical Pictures, Indian Paintbrush, Moonrise, Scott Rudin Productions
Жанр: драма, комедия
Год выпуска: 2012
Мировая премьера: 16 мая 2012
Российская премьера: 21 июня 2012
Дата выхода DVD: 30 июля 2012
Дата выхода Blu-Ray: 6 августа 2012
Продолжительность: 01:29:49
Перевод: Профессиональный (дублированный) [Лицензия]
Cубтитры: нет
Оригинальная аудиодорожка: нет
Режиссер: Уэс Андерсон / Wes Anderson
В ролях: Брюс Уиллис, Эдвард Нортон, Билл Мюррей, Кара Хэйуорд, Джаред Гилман, Джейсон Шварцман, Тильда Суинтон, Фрэнсис МакДорманд, Харви Кейтель, Боб Бэлабан...
Описание: После таинственного исчезновения мальчишки и девчонки из лагеря бойскаутов принципиальный шериф ставит на уши весь город. Свое альтернативное расследование начинает тренер бойскаутов. Мамаша девушки бьется в истерике, а отец, кажется, что-то скрывает… Ведь у каждого в жизни бывает первая любовь.
Бонусы: Скоро на DVD

Качество: DVD9 R5
Формат: DVD-Video
Видео кодек: MPEG2
Аудио кодек: AC3
Видео: PAL 16:9 (720x576(0.770)) MPEG Video, 25,000 кадр/сек, 7979 Кбит/сек
Аудио #1: Russian (Dolby AC3, 6 ch) 384 Кбит/сек, 48,0 КГц
Аудио #2: Russian (Dolby AC3, 2 ch) 192 Кбит/сек, 48,0 КГц



Title:
Size: 6.85 Gb ( 7 179 440,00 KBytes ) - DVD-9
Enabled regions: 1, 2, 3, 4, 5, 6, 7, 8

VTS_01 :
Play Length: 00:00:01+01:29:49+00:00:01
Video: PAL 16:9 (720x576) VBR, Auto Letterboxed
Audio:
Russian (Dolby AC3, 6 ch)
Russian (Dolby AC3, 2 ch)

VTS_02 :
Play Length: 00:00:01+00:00:11+00:00:01
Video: PAL 16:9 (720x576) VBR, Auto Letterboxed
Audio:
Russian (Dolby AC3, 2 ch)

VTS_03 :
Play Length: 00:00:01+00:00:17+00:00:01
Video: PAL 16:9 (720x576) VBR, Auto Letterboxed
Audio:
Russian (Dolby AC3, 2 ch)

VTS_04 :
Play Length: 00:00:01+00:24:32+00:00:01
Video: PAL 16:9 (720x576) VBR, Auto Letterboxed
Audio:
Not specified (Dolby AC3, 2 ch)

* Menus Information *

VIDEO_TS Menu
Video:
NTSC 4:3 (720x480) VBR
Auto Pan&Scan, Auto Letterboxed
Russian Language Unit :
Title Menu

VTS_01 Menu
Video:
PAL 16:9 (720x576) VBR
Auto Letterboxed
Audio:
Not specified (LinearPCM, 2 ch)
Russian Language Unit :
Root Menu
Общее
Полное имя : J:\Новинки 2012\Korolevstvo.polnoj.luny.2012.DVD9\VIDEO_TS\VTS_01_1.VOB
Формат : MPEG-PS
Размер файла : 1024 Мбайт
Продолжительность : 16 м.
Общий поток : 8729 Кбит/сек

Видео
Идентификатор : 224 (0xE0)
Формат : MPEG Video
Версия формата : Version 2
Профиль формата : Main@Main
Параметр BVOP формата : Да
Параметр матрицы формата : Выборочная
Продолжительность : 16 м.
Битрейт : 7979 Кбит/сек
Максимальный битрейт : 6000 Кбит/сек
Ширина : 720 пикселей
Высота : 576 пикселей
Соотношение сторон : 16:9
Частота кадров : 25,000 кадров/сек
Стандарт вещания : PAL
Цветовое пространство : YUV
Субдискретизация насыщенности : 4:2:0
Битовая глубина : 8 бит
Тип развёртки : Чересстрочная
Порядок развёртки : Нижнее поле первое
Метод сжатия : С потерями
Бит/(Пиксели*Кадры) : 0.770
Размер потока : 936 Мбайт (91%)

Аудио #1
Идентификатор : 189 (0xBD)-128 (0x80)
Формат : AC-3
Формат/Информация : Audio Coding 3
Расширение режима : CM (complete main)
Параметр Endianness формата : Big
Режим смешивания : DVD-Video
Продолжительность : 16 м.
Вид битрейта : Постоянный
Битрейт : 384 Кбит/сек
Каналы : 6 каналов
Расположение каналов : Front: L C R, Side: L R, LFE
Частота : 48,0 КГц
Битовая глубина : 16 бит
Метод сжатия : С потерями
Размер потока : 45,0 Мбайт (4%)

Аудио #2
Идентификатор : 189 (0xBD)-129 (0x81)
Формат : AC-3
Формат/Информация : Audio Coding 3
Расширение режима : CM (complete main)
Параметр Endianness формата : Big
Режим смешивания : DVD-Video
Продолжительность : 16 м.
Вид битрейта : Постоянный
Битрейт : 192 Кбит/сек
Каналы : 2 канала
Расположение каналов : Front: L R
Частота : 48,0 КГц
Битовая глубина : 16 бит
Метод сжатия : С потерями
Размер потока : 22,5 Мбайт (2%)










pb.wtf



Скачать Королевство полной луны через торрент http://i43.fastpic.ru/big/2012/0726/45/a30aeabc71803dddea6bec876a6b5e45.jpg Скачать фильм Королевство полной луны через торрент бесплантно в хорошем качестве Описание: После таинственного исчезновения мальчишки и девчонки из лагеря бойскаутов принципиальный шериф ставит на уши весь город. Свое ... 5 10 1
Info! Золотая раздача, скачанное не засчитывается.
Торрент: Зарегистрирован [2012-07-28 09:56] · скачан: 78 раз
Статус: √ проверено
Размер: 6.85 GB
Как cкачать? Как скачать Королевство полной луны через торрент | UTorrent

28-11-2019 20:33  

Отключить всю рекламу на сайте

30-10-2015 17:18 Королевство полной луны Скачать торрент  

а скорости слабо дать, совсем немножко!?:))pb.wtf



    Дорогой пользователь! Огромная просьба, поблагодарите релизера, оцените раздачу и оставьте свои комментарий, если Вы скачали Королевство полной луны через торрент бесплатно! Внесите свою лепту в развитие PiratBit!
    Комментировать посты могут только пользователи прошедшие не сложную регистрацию
    Показать сообщения:    

    Королевство полной луны через торрент
    Скачать бесплатно Королевство полной луны
    Королевство полной луны скачать торрент
    Королевство полной луны смотреть онлайн
    Cкачать фильм Королевство полной луны бесплатно
    Королевство полной луны скачать торрент в хорошем качестве
    Королевство полной луны смотреть онлайн бесплатно в хорошем качестве


    Вы не можете начинать темы
    Вы не можете отвечать на сообщения
    Вы не можете редактировать свои сообщения
    Вы не можете удалять свои сообщения
    Вы не можете голосовать в опросах
    Вы не можете прикреплять файлы к сообщениям
    Вы можете скачивать файлы