Ссылка на приватное зеркало нашего сайта всего за 1$. Внимание количество ограничено!!!

2 сезон

iTunes

1 сезон

1

iTunes

iTunes

iTunes

1 сезон

RePack

30

ИГРА 18+

pack

ВАЖНО

!!Акция!!

Alien_RageХит недели

RePack

MK11
pack

Забери бонус

RePack

jed

!!Акция!!

Alien_Rage

RePack

fifa19

RePack

Assassins Creed: Odyssey

RePack

NEED FOR SPEED™ PAYBACK

4 сезон

9 сезон

Бесстыжие 9 сезон

Все сериалы

все сериалы на PB.wtf

RePack

FAR CRY 5
  

Конец человечества / Exit Humanity (Джон Геддес) [2011 г., Ужасы, BDRip 720p ] VO [Kenum] pb.wtf

Конец человечества через торрент pb.wtf

Размер: 4.73 GB | Добавлен: 8 лет 3 мес. назад | Торрент скачан:142 раза
Скачать  

28-07-2012 12:38 Конец человечества Скачать торрент  

Конец человечества / Exit HumanityГод выпуска: 2011
Страна: Канада
Жанр: Ужасы
Продолжительность: 01:55:03
Перевод: Любительский (одноголосый) [Kenum]
Режиссер: Джон Геддес
Продюссер: Джесси Т. Кук, Джон Геддес, Matt Wiele
Сценарий: Джон Геддес
Бюджет: CAD 300 000
Премьера в мире: 18 сентября 2011
В ролях: Марк Гибсон, Ди Уоллес-Стоун, Билл Моусли, Стивен МакХэтти, Джордан Хэйес, Адам Сейболд, Эри Миллен, Джейсон Брауни Браун
Описание:
События разворачиваются во времена войны американского Севера и Юга. Молодой боец попадает между двух огней: с одной стороны враги, а с другой - орды оживших мертвецов, зомби. Ему придется приложить не мало усилий, чтобы выжить...
Качество: BDRip (720p)
Формат: MKV
Видео кодек: H.26x
Аудио кодек: AC3,DTS
Видео: 1280x544, 23.976 fps, 4696 Kbps
Аудио#1: Русский, АС3, 48,0 КГц,448 Kbps (6 ch)
Аудио#2: Английский,DTS, 48,0 КГц ,755 Kbps (6 ch)
Общее
Уникальный идентификатор : 199992498423099470437264525487581954320 (0x967527757ECDD75EA38614E41BD00110)
Полное имя : Exit.Humanity.2011.x264.BDRip.720p.mkv
Формат : Matroska
Версия формата : Version 2
Размер файла : 4,73 Гбайт
Продолжительность : 1 ч. 55 м.
Общий поток : 5883 Кбит/сек
Дата кодирования : UTC 2012-07-28 09:37:04
Программа кодирования : mkvmerge v5.4.0 ('Piper') built on Mar 10 2012 13:34:39
Библиотека кодирования : libebml v1.2.3 + libmatroska v1.3.0

Видео
Идентификатор : 1
Формат : AVC
Формат/Информация : Advanced Video Codec
Профиль формата : High@L4.1
Параметр CABAC формата : Да
Параметр ReFrames формата : 12 кадров
Идентификатор кодека : V_MPEG4/ISO/AVC
Продолжительность : 1 ч. 55 м.
Битрейт : 4696 Кбит/сек
Ширина : 1280 пикселей
Высота : 544 пикселя
Соотношение сторон : 2,35:1
Частота кадров : 23,976 кадра/сек
Цветовое пространство : YUV
Субдискретизация насыщенности : 4:2:0
Битовая глубина : 8 бит
Тип развёртки : Прогрессивная
Бит/(Пиксели*Кадры) : 0.281
Размер потока : 3,67 Гбайт (78%)
Заголовок : Exit Humanity (2011)
Библиотека кодирования : x264 core 120 r2164 da19765
Настройки программы : cabac=1 / ref=12 / deblock=1:-3:-3 / analyse=0x3:0x133 / me=umh / subme=11 / psy=1 / psy_rd=1.05:0.00 / mixed_ref=1 / me_range=32 / chroma_me=1 / trellis=2 / 8x8dct=1 / cqm=0 / deadzone=21,11 / fast_pskip=1 / chroma_qp_offset=-2 / threads=12 / sliced_threads=0 / nr=0 / decimate=1 / interlaced=0 / bluray_compat=0 / constrained_intra=0 / bframes=8 / b_pyramid=2 / b_adapt=2 / b_bias=0 / direct=1 / weightb=1 / open_gop=0 / weightp=2 / keyint=240 / keyint_min=23 / scenecut=40 / intra_refresh=0 / rc_lookahead=120 / rc=2pass / mbtree=1 / bitrate=4696 / ratetol=1.0 / qcomp=0.70 / qpmin=0 / qpmax=69 / qpstep=4 / cplxblur=20.0 / qblur=0.5 / ip_ratio=1.40 / aq=1:1.00
Язык : English
Default : Да
Forced : Нет

Аудио #1
Идентификатор : 2
Формат : AC-3
Формат/Информация : Audio Coding 3
Расширение режима : CM (complete main)
Параметр Endianness формата : Big
Идентификатор кодека : A_AC3
Продолжительность : 1 ч. 55 м.
Вид битрейта : Постоянный
Битрейт : 448 Кбит/сек
Каналы : 6 каналов
Расположение каналов : Front: L C R, Side: L R, LFE
Частота : 48,0 КГц
Битовая глубина : 16 бит
Метод сжатия : С потерями
Размер потока : 369 Мбайт (8%)
Заголовок : AC3 448K
Язык : Russian
Default : Да
Forced : Нет

Аудио #2
Идентификатор : 3
Формат : DTS
Формат/Информация : Digital Theater Systems
Идентификатор кодека : A_DTS
Продолжительность : 1 ч. 55 м.
Вид битрейта : Постоянный
Битрейт : 755 Кбит/сек
Каналы : 6 каналов
Расположение каналов : Front: L C R, Side: L R, LFE
Частота : 48,0 КГц
Битовая глубина : 24 бит
Метод сжатия : С потерями
Размер потока : 621 Мбайт (13%)
Заголовок : DTS 755K
Язык : English
Default : Нет
Forced : Нет

pb.wtf



Скачать Конец человечества через торрент http://i41.fastpic.ru/big/2012/0728/4f/ce38817eacca8e3a6fd669ba0c2c324f.jpg Скачать фильм Конец человечества через торрент бесплантно в хорошем качестве Описание: События разворачиваются во времена войны американского Севера и Юга. Молодой боец попадает между двух огней: с одной стороны ... 4.9 10 14
Info! Золотая раздача, скачанное не засчитывается.
Торрент: Зарегистрирован [2012-07-28 12:38] · скачан: 142 раз
Статус: √ проверено
Размер: 4.73 GB
Как cкачать? Как скачать Конец человечества через торрент | qTorrent

% Раздел Тема Автор DL S | L
Фильмы 2011 [ 1.37 GB ] Конец человечества / Exit Humanity [2011 HDRip] VO Kenum -=Cherry=- Скачать
1 | 0
T Фильмы 2011 [ 684 MB ] Конец человечества / Exit Humanity [2011 HDRip VO] MIXX_ON Скачать
1 | 0

28-11-2019 20:33  

Отключить всю рекламу на сайте

28-07-2012 14:50 Конец человечества Скачать торрент  

Норм шлак походу,надо посмотреть)pb.wtf



28-07-2012 15:28 Конец человечества Скачать торрент  

Forbius писал(а):

Норм шлак походу,надо посмотреть)

Вы посмотрите ,а уж потом пишите Ваше "мнение"...Начал смотреть пока интересно,хороший фильм, кстати Марк Гибсон - племянник Мела Гибсона.pb.wtf



29-07-2012 05:43 Конец человечества Скачать торрент  

Честно фильм душноват, но из уважения к ходячей мертвечине стоит посмотреть! Раздающему спасибо!!! :jcfan:pb.wtf



    Дорогой пользователь! Огромная просьба, поблагодарите релизера, оцените раздачу и оставьте свои комментарий, если Вы скачали Конец человечества через торрент бесплатно! Внесите свою лепту в развитие PiratBit!
    Комментировать посты могут только пользователи прошедшие не сложную регистрацию
    Показать сообщения:    

    Конец человечества через торрент
    Скачать бесплатно Конец человечества
    Конец человечества скачать торрент
    Конец человечества смотреть онлайн
    Cкачать фильм Конец человечества бесплатно
    Конец человечества скачать торрент в хорошем качестве
    Конец человечества смотреть онлайн бесплатно в хорошем качестве


    Вы не можете начинать темы
    Вы не можете отвечать на сообщения
    Вы не можете редактировать свои сообщения
    Вы не можете удалять свои сообщения
    Вы не можете голосовать в опросах
    Вы не можете прикреплять файлы к сообщениям
    Вы можете скачивать файлы