Ссылка на приватное зеркало нашего сайта всего за 1$. Внимание количество ограничено!!!

2 сезон

iTunes

1 сезон

1

iTunes

iTunes

iTunes

1 сезон

RePack

30

ИГРА 18+

pack

ВАЖНО

!!Акция!!

Alien_RageХит недели

RePack

MK11
pack

Забери бонус

RePack

jed

!!Акция!!

Alien_Rage

RePack

fifa19

RePack

Assassins Creed: Odyssey

RePack

NEED FOR SPEED™ PAYBACK

4 сезон

9 сезон

Бесстыжие 9 сезон

Все сериалы

все сериалы на PB.wtf

RePack

FAR CRY 5
  

Оправданная жестокость / A History of Violence (Дэвид Кроненберг) [2005 г., триллер, драма, криминал, BDRip, Профессиональный (многоголосый) (лицензия)] pb.wtf

Оправданная жестокость через торрент pb.wtf

Размер: 4.63 GB | Добавлен: 8 лет 2 мес. назад | Торрент скачан:99 раз
Скачать  

29-07-2012 19:07 Оправданная жестокость Скачать торрент  

Оправданная жестокость / A History of Violence

Год выпуска: 2005
Страна: США, Германия
Жанр: триллер, драма, криминал
Продолжительность: 96 мин.
Перевод: Профессиональный (многоголосый) (Лицензия)
Тип релиза: Лицензия

Режиссер: Дэвид Кроненберг
Продюссер: Крис Бендер, Дж.С. Спинк, Кент Альтерман
Сценарий: Джош Олсон, Джон Вагнер, Винс Лок
В ролях: Вигго Мортенсен, Мария Белло, Эд Харрис, Уильям Херт, Эштон Холмс, Питер Макнейл

Бюджет: $32 000 000
Премьера в мире: 16 мая 2005


IMDB 7.60 (117 564)


Описание: Двое бандитов путешествуют по американской провинции, оставляя после себя многочисленные трупы. Однажды они оказываются в тихом городке Миллбрук, штат Индиана. В этом городе живёт Том Столл, уважаемый всеми владелец небольшой закусочной, и его семья  жена  и двое детей, Джек и Сара. При попытке вооружённого ограбления своей закусочной Том Столл убивает бандитов и становится местным героем, о его подвиге упоённо рассказывает телевидение. На следующий день в Миллбруке появляются загадочные люди, которые почему-то называют Тома именем Джоуи и расспрашивают его о Филадельфии.

Качество: BDRip
Формат: MKV
Видео кодек: H.26x
Аудио кодек: AC3
Видео: 1280x688 (1.860), 23.976 fps, 5 895 Kbps (0.279 bit/pixel)
Аудио#1: AC-3, 48.0 KHz, 6 ch, 384 Kbps, CBR (Russian)
Аудио#2: AC-3, 48.0 KHz, 6 ch, 640 Kbps, CBR (English)
Субтитры 1: Русские
Субтитры 2: Aнглийские
Съёмки картины проходили на родине режиссёра Дэвида Кроненберга в Канаде. Роль вымышленного американского города Миллбрук, штат Индиана, сыграл город Миллбрук в провинции Онтарио; сцены фильма, происходящие в Филадельфии, снимались в Торонто.
Одна из самых затратных и жестоких сцен ленты (известная также как «сцена 44») — сон Тома Столла, в котором он убивает Карла Фогарти, — в фильм не попала. Режиссёр счёл её неуместной ссылкой на свои предыдущие работы. Эта сцена с комментариями Кроненберга вошла в DVD-издание «Оправданной жестокости».
Прокатные версии фильма для США и остального мира несколько отличаются. Специально для американского проката Кроненберг сделал два эпизода чуть менее кровавыми.
Премьера фильма «Оправданная жестокость» состоялась 16 мая 2005 года в рамках 58-го Каннского кинофестиваля. Картина участвовала в основном конкурсе.
Это последний фильм, вышедший в формате VHS.



http://www.youtube.com/watch?feature=player_detailpage&v=eY9fHGJ492E


Общее
Формат : Matroska
Версия формата : Version 1
Размер файла : 4,63 Гбайт
Продолжительность : 1 ч. 35 м.
Общий поток : 6923 Кбит/сек
Название фильма : -=HANSMER=-
Дата кодирования : UTC 2009-02-11 18:49:36
Программа кодирования : mkvmerge v2.4.1 ('Use Me') built on Dec 5 2008 18:30:05
Библиотека кодирования : libebml v0.7.7 + libmatroska v0.8.1

Видео
Идентификатор : 1
Формат : AVC
Формат/Информация : Advanced Video Codec
Профиль формата : High@L3.1
Параметр CABAC формата : Да
Параметр ReFrames формата : 5 кадров
Параметры GOP формата : M=1, N=12
Идентификатор кодека : V_MPEG4/ISO/AVC
Продолжительность : 1 ч. 35 м.
Битрейт : 5895 Кбит/сек
Ширина : 1280 пикс.
Высота : 688 пикс.
Соотношение сторон : 1,860
Частота кадров : 23,976 кадр/сек
Цветовое пространство : YUV
Подвыборка цветности : 4:2:0
Битовая глубина : 8 бит
Тип развёртки : Прогрессивная
Бит/(Пиксели*Кадры) : 0.279
Размер потока : 3,85 Гбайт (83%)
Заголовок : A.History.Of.Violence.2005.720p.BluRay.x264-SiNNERS
Библиотека кодирования : x264 core 66 r1109 75b495f
Настройки программы : cabac=1 / ref=5 / deblock=1:0:0 / analyse=0x3:0x113 / me=umh / subme=7 / psy_rd=1.0:0.0 / mixed_ref=1 / me_range=16 / chroma_me=1 / trellis=1 / 8x8dct=1 / cqm=0 / deadzone=21,11 / chroma_qp_offset=-2 / threads=6 / nr=0 / decimate=1 / mbaff=0 / bframes=3 / b_pyramid=1 / b_adapt=1 / b_bias=0 / direct=1 / wpredb=1 / keyint=250 / keyint_min=25 / scenecut=40(pre) / rc=2pass / bitrate=5895 / ratetol=1.0 / qcomp=0.60 / qpmin=10 / qpmax=51 / qpstep=4 / cplxblur=20.0 / qblur=0.5 / ip_ratio=1.40 / pb_ratio=1.30 / aq=1:1.00
Язык : English

Аудио #1
Идентификатор : 2
Формат : AC-3
Формат/Информация : Audio Coding 3
Расширение режима : CM (complete main)
Идентификатор кодека : A_AC3
Продолжительность : 1 ч. 35 м.
Вид битрейта : Постоянный
Битрейт : 384 Кбит/сек
Каналы : 6 каналов
Расположение каналов : Front: L C R, Side: L R, LFE
Частота : 48,0 КГц
Битовая глубина : 16 бит
Метод сжатия : С потерями
Размер потока : 263 Мбайт (6%)
Язык : Russian

Аудио #2
Идентификатор : 3
Формат : AC-3
Формат/Информация : Audio Coding 3
Расширение режима : CM (complete main)
Идентификатор кодека : A_AC3
Продолжительность : 1 ч. 35 м.
Вид битрейта : Постоянный
Битрейт : 640 Кбит/сек
Каналы : 6 каналов
Расположение каналов : Front: L C R, Side: L R, LFE
Частота : 48,0 КГц
Битовая глубина : 16 бит
Метод сжатия : С потерями
Размер потока : 438 Мбайт (9%)
Язык : English

Текст #1
Идентификатор : 4
Формат : UTF-8
Идентификатор кодека : S_TEXT/UTF8
Идентификатор кодека/Информация : UTF-8 Plain Text
Язык : Russian

Текст #2
Идентификатор : 5
Формат : UTF-8
Идентификатор кодека : S_TEXT/UTF8
Идентификатор кодека/Информация : UTF-8 Plain Text
Язык : English

pb.wtf



Скачать Оправданная жестокость через торрент http://pic.kartinco.top/images/1/oj1zm4xgxj.jpg Скачать фильм Оправданная жестокость через торрент бесплантно в хорошем качестве Описание: Двое бандитов путешествуют по американской провинции, оставляя после себя многочисленные трупы. Однажды они оказываются в тихом ... 10 10 4
Info! Золотая раздача, скачанное не засчитывается.
Торрент: Зарегистрирован [2012-07-29 19:07] · скачан: 99 раз
Статус: √ проверено
Размер: 4.63 GB
Как cкачать? Как скачать Оправданная жестокость через торрент | qTorrent

% Раздел Тема Автор DL S | L
Фильмы [HD 720p, 1080p] (Хороший звук DUB, MVO) [ 4.63 GB ] Оправданная жестокость / История насилия / A history of violence [2005 BDRip 720p] diletant Скачать
1 | 0

28-11-2019 20:33  

Отключить всю рекламу на сайте

30-07-2012 19:29 Оправданная жестокость Скачать торрент  

Скоро пулю в висок пущуpb.wtf



    Дорогой пользователь! Огромная просьба, поблагодарите релизера, оцените раздачу и оставьте свои комментарий, если Вы скачали Оправданная жестокость через торрент бесплатно! Внесите свою лепту в развитие PiratBit!
    Комментировать посты могут только пользователи прошедшие не сложную регистрацию
    Показать сообщения:    

    Оправданная жестокость через торрент
    Скачать бесплатно Оправданная жестокость
    Оправданная жестокость скачать торрент
    Оправданная жестокость смотреть онлайн
    Cкачать фильм Оправданная жестокость бесплатно
    Оправданная жестокость скачать торрент в хорошем качестве
    Оправданная жестокость смотреть онлайн бесплатно в хорошем качестве


    Вы не можете начинать темы
    Вы не можете отвечать на сообщения
    Вы не можете редактировать свои сообщения
    Вы не можете удалять свои сообщения
    Вы не можете голосовать в опросах
    Вы не можете прикреплять файлы к сообщениям
    Вы можете скачивать файлы