2 сезон

iTunes

1 сезон

1

iTunes

iTunes

iTunes

1 сезон

RePack

30

ИГРА 18+

pack

ВАЖНО

!!Акция!!

Alien_RageХит недели

RePack

MK11
pack

Забери бонус

RePack

jed

!!Акция!!

Alien_Rage

RePack

fifa19

RePack

Assassins Creed: Odyssey

RePack

NEED FOR SPEED™ PAYBACK

4 сезон

9 сезон

Бесстыжие 9 сезон

Все сериалы

все сериалы на PB.wtf

RePack

FAR CRY 5
  

Малышка на миллион / Million Dollar Baby (Клинт Иствуд) [2004 г., драма, спорт, BDRip, Дубляж] pb.wtf

Малышка на миллион через торрент pb.wtf

Размер: 13.87 GB | Добавлен: 8 лет 2 мес. назад | Торрент скачан:18 раз
Скачать  

31-07-2012 08:25 Малышка на миллион Скачать торрент  

Малышка на миллион / Million Dollar Baby

Год выпуска: 2004
Страна: США
Жанр: драма, спорт
Продолжительность: 02:12:32
Перевод: Профессиональный (полное дублирование)
Субтитры: Russian, English
Режиссер: Клинт Иствуд
Продюссер: Клинт Иствуд, Пол Хаггис, Роберт Лоренц, Гари Лучези, Роберт Мореско
Сценарий: Ф. Кс. Тул, Пол Хаггис
Бюджет: $30 000 000
Премьера в мире: 15 декабря 2004
PG-13 - Детям до 13 лет просмотр не желателен
В ролях: Клинт Иствуд (Frankie Dunn), Хилари Суэнк (Maggie Fitzgerald), Морган Фриман (Eddie Scrap-Iron Dupris), Джей Барушель (Danger Barch), Майк Колтер (Big Willie Little), Люсия Рижкер (Billie The Blue Bear), Брайан Ф. О’Бирн (Father Horvak), Энтони Маки (Shawrelle Berry), Марго Мартиндейл (Earline Fitzgerald), Рики Линдхоум (Mardell Fitzgerald), Майкл Пенья (Omar), Бенито Мартинес (Billies Manager)
Описание: Тренер по боксу Фрэнк Данн переживает не лучшие времена. Из-за сложных отношений со своей дочерью он долгое время не позволял себе привязываться к кому-либо, боясь вновь пережить потерю. Однако все меняется, когда в его тренировочном зале появляется Мэгги. Существуя в постоянной борьбе с окружающим миром, Мэгги выработала в себе непоколебимую стойкость духа и волю к победе. Но больше всего на свете она хочет, чтобы в нее поверили.
Фрэнк не хочет брать на себя ответственность, однако упорство Мэгги побеждает. В водовороте жизненных перипетий эти двое осознают, что стремятся к одному и тому же: забыть прошлое и обрести семью. Впереди их ждет главное сражение жизни, для которого им потребуется собрать в своих сердцах столько мужества, сколько раньше они и представить себе не могли
Качество: BDRip
Формат: MKV
Видео кодек: H.26x
Аудио кодек: DTS
Видео: 1920x800 at 23.976 fps, x264@L4.1, 2pass, ~12.725 kbps avg
Аудио#1: Russian: 48 kHz, DTS, 3/2 (L,C,R,l,r) + LFE ch, ~768.00 kbps avg |Дубляж|
Аудио#2: English: 48 kHz, DTS, 3/2 (L,C,R,l,r) + LFE ch, ~1536.00 kbps avg
:General
Unique ID : 213562076472613771695393139243097197544 (0xA0AA8F4F79193312A0A40DD5356F0BE8)
Complete name : D:\фильмы\Million.Dollar.Baby.2004.mkv
Format : MKV
Format version : Version 2
File size : 13.9 GiB
Duration : 2h 12mn
Overall bit rate : 15.0 Mbps
Movie name : Million Dollar Baby (2004)
Encoded date : UTC 2010-02-25 18:04:40
Writing application : mkvmerge v3.1.0 ('Happy up here') built on Jan 19 2010 12:09:24
Writing library : libebml v0.7.9 + libmatroska v0.8.1

Video
ID : 1
Format : AVC
Format/Info : Advanced Video Codec
Format profile : High@L4.1
Format settings, CABAC : Yes
Format settings, ReFrames : 5 frames
Codec ID : V_MPEG4/ISO/AVC
Duration : 2h 12mn
Bit rate : 12.7 Mbps
Width : 1 920 pixels
Height : 800 pixels
Display aspect ratio : 2.40:1
Frame rate : 23.976 fps
Color space : YUV
Chroma subsampling : 4:2:0
Bit depth : 8 bits
Scan type : Progressive
Bits/(Pixel*Frame) : 0.346
Stream size : 11.5 GiB (83%)
Title : Release for HDCLUB
Writing library : x264 core 84 r1416 fcf70c2
Encoding settings : cabac=1 / ref=5 / deblock=1:-3:-3 / analyse=0x3:0x113 / me=umh / subme=9 / psy=1 / psy_rd=1.0:0.0 / mixed_ref=1 / me_range=32 / chroma_me=1 / trellis=2 / 8x8dct=1 / cqm=0 / deadzone=21,11 / fast_pskip=1 / chroma_qp_offset=-2 / threads=6 / sliced_threads=0 / nr=0 / decimate=1 / mbaff=0 / constrained_intra=0 / bframes=6 / b_pyramid=2 / b_adapt=2 / b_bias=0 / direct=2 / wpredb=1 / wpredp=2 / keyint=250 / keyint_min=25 / scenecut=40 / intra_refresh=0 / rc_lookahead=80 / rc=2pass / mbtree=1 / bitrate=12725 / ratetol=1.0 / qcomp=0.60 / qpmin=10 / qpmax=51 / qpstep=4 / cplxblur=20.0 / qblur=0.5 / ip_ratio=1.40 / aq=1:0.80
Language : English
Default : Yes
Forced : No

Audio #1
ID : 2
Format : DTS
Format/Info : Digital Theater Systems
Codec ID : A_DTS
Duration : 2h 12mn
Bit rate mode : Constant
Bit rate : 755 Kbps
Channel(s) : 6 channels
Channel positions : Front: L C R, Side: L R, LFE
Sampling rate : 48.0 KHz
Bit depth : 24 bits
Compression mode : Lossy
Stream size : 715 MiB (5%)
Title : DTS 5.1 @ 768 kbps - Дублированный
Language : Russian
Default : No
Forced : No

Audio #2
ID : 3
Format : DTS
Format/Info : Digital Theater Systems
Format profile : ES
Codec ID : A_DTS
Duration : 2h 12mn
Bit rate mode : Constant
Bit rate : 1 510 Kbps
Channel(s) : 6 channels
Channel positions : Front: L C R, Side: L R, LFE
Sampling rate : 48.0 KHz
Bit depth : 24 bits
Compression mode : Lossy
Stream size : 1.40 GiB (10%)
Title : DTS 5.1 @ 1536 kbps
Language : English
Default : No
Forced : No

Text #1
ID : 4
Format : UTF-8
Codec ID : S_TEXT/UTF8
Codec ID/Info : UTF-8 Plain Text
Language : Russian
Default : Yes
Forced : No

Text #2
ID : 5
Format : UTF-8
Codec ID : S_TEXT/UTF8
Codec ID/Info : UTF-8 Plain Text
Language : English
Default : No
Forced : No
:

pb.wtf



Скачать Малышка на миллион через торрент http://www.kinomanie.com/uploads/posts/2010-09/1285790942_72333296-2eca-46c2-95d0-7b54946c27cb.jpg Скачать фильм Малышка на миллион через торрент бесплантно в хорошем качестве Описание: Тренер по боксу Фрэнк Данн переживает не лучшие времена. Из-за сложных отношений со своей дочерью он долгое время не позволял ... 10 10 2
Info! Золотая раздача, скачанное не засчитывается.
Торрент: Зарегистрирован [2012-07-31 08:25] · скачан: 18 раз
Статус: √ проверено
Размер: 13.87 GB
Как cкачать? Как скачать Малышка на миллион через торрент | qTorrent

% Раздел Тема Автор DL S | L
Фильмы 2001-2005 [ 1.46 GB ] Малышка на миллион / Million Dollar Baby [2004 HDRip] art1san Скачать
1 | 0
Фильмы [HD 720p, 1080p] (Хороший звук DUB, MVO) [ 6.38 GB ] Малышка на миллион / Million Dollar Baby [2004 BDRip 720p] DUB AVO msltel Скачать
1 | 0
Фильмы [HD 720p, 1080p] (Хороший звук DUB, MVO) [ 14.36 GB ] Малышка на миллион / Million Dollar Baby [2004 BDRip 1080p] DUB AVO msltel Скачать
1 | 0
Фильмы 2001-2005 [ 2.9 GB ] Малышка на миллион / Million Dollar Baby [2004 BDRip-AVC] DUB _KaisiK_ Скачать
1 | 0
Фильмы 2001-2005 [ 2.04 GB ] Малышка на миллион / Million Dollar Baby [2004 HDRip ] TekkenxD Скачать
1 | 0
Фильмы [HD 720p, 1080p] (Хороший звук DUB, MVO) [ 9.39 GB ] Малышка на миллион / Million Dollar Baby [2004 BDRip лицензия] ~Relizer~ Скачать
1 | 0
Фильмы [HD 720p, 1080p] (Хороший звук DUB, MVO) [ 7.87 GB ] Малышка на миллион / Million Dollar Baby [2004 BDRip ] Anonymous Скачать
1 | 0

28-11-2019 20:33  

Отключить всю рекламу на сайте

31-07-2012 14:42 Малышка на миллион Скачать торрент  

очень хорошая драма.....даже слишком хорошаяpb.wtf



    Дорогой пользователь! Огромная просьба, поблагодарите релизера, оцените раздачу и оставьте свои комментарий, если Вы скачали Малышка на миллион через торрент бесплатно! Внесите свою лепту в развитие PiratBit!
    Комментировать посты могут только пользователи прошедшие не сложную регистрацию
    Показать сообщения:    

    Малышка на миллион через торрент
    Скачать бесплатно Малышка на миллион
    Малышка на миллион скачать торрент
    Малышка на миллион смотреть онлайн
    Cкачать фильм Малышка на миллион бесплатно
    Малышка на миллион скачать торрент в хорошем качестве
    Малышка на миллион смотреть онлайн бесплатно в хорошем качестве


    Вы не можете начинать темы
    Вы не можете отвечать на сообщения
    Вы не можете редактировать свои сообщения
    Вы не можете удалять свои сообщения
    Вы не можете голосовать в опросах
    Вы не можете прикреплять файлы к сообщениям
    Вы можете скачивать файлы