новый адрес
Мега распродажа FORZA HORIZON 4 ULTIMATE+ВСЕ DLC+ОНЛАЙН всего за 499р. 349 руб. (супер цена). Внимание количество ограничено!!!

iTunes

1+1

iTunes

мы

iTunes

1

iTunes

Чернобыль

iTunes

Ральф против интернета

Лицензия

ПШазам

Лицензия

Оно 2

Лицензия

30
pack

ВАЖНО

!!Акция!!

Alien_RageХит недели

RePack

Resident Evil 21

ИГРА 18+

pack

RePack

jed

!!Акция!!

Alien_Rage

RePack

fifa19

RePack

Assassins Creed: Odyssey

RePack

NEED FOR SPEED™ PAYBACK

3 сезон

9 сезон

Бесстыжие 9 сезон

Все сериалы

все сериалы на PB.wtf

RePack

FAR CRY 5
Ребята, катастрофически не хватает 1900р. для оплаты серверов за Октябрь (всвязи с блокировками трафик упал в 3 раза), 1-2р., выручайте.
  

Семен Дежнев (Николай Гусаров) [1983 г., приключения, биография, DVDRip] pb.wtf

Семен Дежнев через торрент pb.wtf

Размер: 1.37 GB | Добавлен: 7 лет 3 мес. назад | Торрент скачан:31 раз
Скачать  

31-07-2012 09:24 Семен Дежнев Скачать торрент  

Семен Дежнев

Год выпуска: 1983
Страна: СССР
Жанр: приключения, биография
Продолжительность: 01:16:00
Перевод: Не требуется

Режиссер: Николай Гусаров

IMDB


В ролях: Алексей Булдаков, Леонид Неведомский, Виктор Григорюк, Маргарита Борисова, Иван Краско, Ольга Сирина, Олег Корчиков, Николай Гусаров, Степан Емельянов, Геннадий Юхтин

Описание: Историко-биографическая картина о русском путешественнике XVII века, первопроходце Семене Дежневе, первооткрывателе новых сибирских земель, который, преодолевая неисчислимые лишения, морем доплыл от Каменного пояса до конечной восточной точки Евразийского материка (ныне мыс Дежнева), обнаружил пролив между Азией и Северной Америкой за 80 лет до открытия его Витусом Берингом…

Качество: DVDRip
Формат: AVI
Видео кодек: XviD
Аудио кодек: MP3
Видео: 720x512 (1.41:1), 25 fps, XviD MPEG-4 ~2451 kbps avg, 0.27 bit/pixel
Аудио#1: 48 kHz, MPEG Layer 3, 2 ch, ~128.00 kbps avg
Общее
Полное имя : F:\Закачки\Semen.Dejnev.1983.DVDRip.avi
Формат : AVI
Формат/Информация : Audio Video Interleave
Профиль формата : OpenDML
Размер файла : 1,37 Гбайт
Продолжительность : 1 ч. 16 м.
Общий поток : 2586 Кбит/сек
Программа кодирования : Lavf52.39.1

Видео
Идентификатор : 0
Формат : xvid
Идентификатор кодека : xvid
Продолжительность : 1 ч. 16 м.
Битрейт : 2443 Кбит/сек
Ширина : 720 пикселей
Высота : 512 пикселей
Соотношение сторон : 1,406
Частота кадров : 25,000 кадров/сек
Бит/(Пиксели*Кадры) : 0.265
Размер потока : 1,30 Гбайт (94%)

Аудио
Идентификатор : 1
Формат : MPEG Audio
Версия формата : Version 1
Профиль формата : Layer 3
Режим : Joint stereo
Расширение режима : MS Stereo
Идентификатор кодека : 55
Идентификатор кодека/Подсказка : MP3
Продолжительность : 1 ч. 16 м.
Вид битрейта : Постоянный
Битрейт : 128 Кбит/сек
Каналы : 2 канала
Частота : 48,0 КГц
Метод сжатия : С потерями
Размер потока : 69,6 Мбайт (5%)
Выравнивание : Соединение по промежуткам
Продолжительность промежутка : 24 мс. (0,60 видеокадр)

pb.wtf



Скачать Семен Дежнев через торрент http://pic.kartinco.top/images/1/f7szhqgtpo.jpg Скачать фильм Семен Дежнев через торрент бесплантно в хорошем качестве Описание: Историко-биографическая картина о русском путешественнике XVII века, первопроходце Семене Дежневе, первооткрывателе новых ... 10 10 2
Info! Золотая раздача, скачанное не засчитывается.
Торрент: Зарегистрирован [2012-07-31 09:24] · скачан: 31 раз
Статус: √ проверено
Размер: 1.37 GB
Как cкачать? Как скачать Семен Дежнев через торрент | qTorrent


>> Регистрируемся здесь <<






Отзывы и комментарии о схеме читаем и пишем здесь: ---> Отзывы и комментарии о схеме

Новые благодарочки в телеграм довольных пользователей:
скриншот   скриншот   скриншот   скриншот   скриншот

03-08-2012 19:52 Семен Дежнев Скачать торрент  

Отличный фильм! Спасибо!pb.wtf



    Дорогой пользователь! Огромная просьба, поблагодарите релизера, оцените раздачу и оставьте свои комментарий, если Вы скачали Семен Дежнев через торрент бесплатно! Внесите свою лепту в развитие PiratBit!
    Комментировать посты могут только пользователи прошедшие не сложную регистрацию
    Показать сообщения:    

    Семен Дежнев через торрент
    Скачать бесплатно Семен Дежнев
    Семен Дежнев скачать торрент
    Семен Дежнев смотреть онлайн
    Cкачать фильм Семен Дежнев бесплатно
    Семен Дежнев скачать торрент в хорошем качестве
    Семен Дежнев смотреть онлайн бесплатно в хорошем качестве


    Вы не можете начинать темы
    Вы не можете отвечать на сообщения
    Вы не можете редактировать свои сообщения
    Вы не можете удалять свои сообщения
    Вы не можете голосовать в опросах
    Вы не можете прикреплять файлы к сообщениям
    Вы можете скачивать файлы