Ссылка на приватное зеркало нашего сайта всего за 1$. Внимание количество ограничено!!!

2 сезон

iTunes

1 сезон

1

iTunes

iTunes

iTunes

1 сезон

RePack

30

ИГРА 18+

pack

ВАЖНО

!!Акция!!

Alien_RageХит недели

RePack

MK11
pack

Забери бонус

RePack

jed

!!Акция!!

Alien_Rage

RePack

fifa19

RePack

Assassins Creed: Odyssey

RePack

NEED FOR SPEED™ PAYBACK

4 сезон

9 сезон

Бесстыжие 9 сезон

Все сериалы

все сериалы на PB.wtf

RePack

FAR CRY 5
  

Непокоренный / Invictus (Клинт Иствуд) [2009 г., драма, биография, история, спорт, BDRip (720p), DUB + Оригинал] pb.wtf

Непокоренный через торрент pb.wtf

Размер: 7.46 GB | Добавлен: 8 лет 2 мес. назад | Торрент скачан:29 раз
Скачать  

31-07-2012 17:44 Непокоренный Скачать торрент  

Непокоренный / Invictus

Год выпуска: 2009
Страна: США
Жанр: драма, биография, история, спорт
Продолжительность: 02:13:38
Перевод: Дубляж + Оригинал
  • Режиссер: Клинт Иствуд
  • Продюссер: Клинт Иствуд, Роберт Лоренц, Лори МакКрири
  • Сценарий: Энтони Пекэм, Джон Карлин
  • Бюджет: $60 000 000

В ролях: Морган Фриман, Мэтт Дэймон, Тони Кгороге, Патрик Мофокенг, Мэтт Штерн, Джулиан Льюис Джонс, Аджоа Андох, Маргарит Уитли, Лелети Кумало, Патрик Листер

Описание: Фильм о времени после падения апартеида, когда Южная Африка провела у себя Кубок мира по регби 1995 года. Тогда шел первый президентский срок Нельсона Манделы, который пытался использовать все возможности, чтобы прекратить многолетнее непонимание между белым и чернокожим населением страны.
  • Качество: BDRip (720p)
  • Формат: MKV
  • Видео кодек: AVC
  • Аудио кодек: AC3, DTS
  • Видео: AVC, 1280x534 (2.35:1), 23.976 fps, 5 841 Kbps (0.356 bit/pixel)
  • Аудио#1: AC-3, 48.0 KHz, 6 ch, 384 Kbps, CBR (Russian) | DUB
  • Аудио#2: DTS, 48.0 KHz, 6 ch, 1 510 Kbps, CBR (English) | Original
  • Аудио#3: E-AC-3, 48.0 KHz, 2 ch, 96.0 Kbps, CBR (English) | Commentary
  • Субтитры: Russian, Ukrainian, English, English

Скриншоты

скриншот  скриншот  скриншот  скриншот  

Код:

Общее
Уникальный идентификатор                 : 230643054044425401409397821056651420677 (0xAD843C8657C0DEE194DD72FC7E44E405)
Полное имя                               : F:\PC Share\Invictus.2009.720p.BluRay.Rus.Eng.HDCLUB.mkv
Формат                                   : Matroska
Версия формата                           : Version 2
Размер файла                             : 7,46 Гбайт
Продолжительность                        : 2 ч. 13 м.
Общий поток                              : 7990 Кбит/сек
Название фильма                          : Invictus (2009) - Release for HDCLUB by -= Andrew Placid =-
Дата кодирования                         : UTC 2010-07-14 15:36:10
Программа кодирования                    : mkvmerge v3.4.0 ('Rapunzel') сборка от May 15 2010 09:38:20
Библиотека кодирования                   : libebml v0.8.0 + libmatroska v0.9.0

Видео
Идентификатор                            : 1
Формат                                   : AVC
Формат/Информация                        : Advanced Video Codec
Профиль формата                          : High@L4.1
Параметр CABAC формата                   : Да
Параметр ReFrames формата                : 9 кадров
Идентификатор кодека                     : V_MPEG4/ISO/AVC
Продолжительность                        : 2 ч. 13 м.
Битрейт                                  : 5841 Кбит/сек
Ширина                                   : 1280 пикселей
Высота                                   : 534 пикселя
Соотношение сторон                       : 2,40:1
Частота кадров                           : 23,976 кадра/сек
Цветовое пространство                    : YUV
Субдискретизация насыщенности            : 4:2:0
Битовая глубина                          : 8 бит
Тип развёртки                            : Прогрессивная
Бит/(Пиксели*Кадры)                      : 0.356
Размер потока                            : 5,45 Гбайт (73%)
Заголовок                                : Release for HDCLUB by -= Andrew Placid =-
Язык                                     : English
Default                                  : Да
Forced                                   : Да

Аудио #1
Идентификатор                            : 2
Формат                                   : AC-3
Формат/Информация                        : Audio Coding 3
Расширение режима                        : CM (complete main)
Параметр Endianness формата              : Big
Идентификатор кодека                     : A_AC3
Продолжительность                        : 2 ч. 13 м.
Вид битрейта                             : Постоянный
Битрейт                                  : 384 Кбит/сек
Каналы                                   : 6 каналов
Расположение каналов                     : Front: L C R, Side: L R, LFE
Частота                                  : 48,0 КГц
Битовая глубина                          : 16 бит
Метод сжатия                             : С потерями
Размер потока                            : 367 Мбайт (5%)
Заголовок                                : AC3 5.1ch 384 kbps [Дубляж]
Язык                                     : Russian
Default                                  : Да
Forced                                   : Нет

Аудио #2
Идентификатор                            : 3
Формат                                   : DTS
Формат/Информация                        : Digital Theater Systems
Идентификатор кодека                     : A_DTS
Продолжительность                        : 2 ч. 13 м.
Вид битрейта                             : Постоянный
Битрейт                                  : 1510 Кбит/сек
Каналы                                   : 6 каналов
Расположение каналов                     : Front: L C R, Side: L R, LFE
Частота                                  : 48,0 КГц
Битовая глубина                          : 24 бит
Метод сжатия                             : С потерями
Размер потока                            : 1,41 Гбайт (19%)
Заголовок                                : DTS 5.1ch 1536 kbps [Орининал]
Язык                                     : English
Default                                  : Нет
Forced                                   : Нет

Аудио #3
Идентификатор                            : 4
Формат                                   : E-AC-3
Формат/Информация                        : Audio Coding 3
Параметр Endianness формата              : Big
Идентификатор кодека                     : A_EAC3
Продолжительность                        : 2 ч. 13 м.
Вид битрейта                             : Постоянный
Битрейт                                  : 96,0 Кбит/сек
Каналы                                   : 2 канала
Расположение каналов                     : Front: L R
Частота                                  : 48,0 КГц
Метод сжатия                             : С потерями
Задержка видео                           : 64 мс.
Размер потока                            : 91,8 Мбайт (1%)
Заголовок                                : E-AC3 2.0ch 96 kbps [Commentary]
Язык                                     : English
Default                                  : Нет
Forced                                   : Нет

Текст #1
Идентификатор                            : 5
Формат                                   : UTF-8
Идентификатор кодека                     : S_TEXT/UTF8
Идентификатор кодека/Информация          : UTF-8 Plain Text
Язык                                     : Russian
Default                                  : Нет
Forced                                   : Нет

Текст #2
Идентификатор                            : 6
Формат                                   : UTF-8
Идентификатор кодека                     : S_TEXT/UTF8
Идентификатор кодека/Информация          : UTF-8 Plain Text
Язык                                     : Ukrainian
Default                                  : Нет
Forced                                   : Нет

Текст #3
Идентификатор                            : 7
Формат                                   : UTF-8
Идентификатор кодека                     : S_TEXT/UTF8
Идентификатор кодека/Информация          : UTF-8 Plain Text
Язык                                     : English
Default                                  : Нет
Forced                                   : Нет

Текст #4
Идентификатор                            : 8
Формат                                   : UTF-8
Идентификатор кодека                     : S_TEXT/UTF8
Идентификатор кодека/Информация          : UTF-8 Plain Text
Заголовок                                : Commentary
Язык                                     : English
Default                                  : Нет
Forced                                   : Нет

Меню
00:00:00.000                             : en:1. Remember This Day
00:04:20.260                             : en:2. Legitimate Question
00:08:26.130                             : en:3. Look to the Future
00:11:54.130                             : en:4. Forgiveness Starts Here
00:17:23.333                             : en:5. Rugby Disgrace
00:21:15.941                             : en:6. Clashing Symbol
00:29:03.199                             : en:7. Human Calculation
00:36:44.410                             : en:8. A Man's Problems
00:40:59.039                             : en:9. Invitation
00:45:34.314                             : en:10. Need to Exceed
00:51:20.494                             : en:11. Thrown Away
00:53:19.279                             : en:12. Request from the Top
00:56:51.950                             : en:13. A Picture Worth More
01:01:09.791                             : en:14. Song We Could Use
01:06:59.515                             : en:15. Inspirational Visits
01:12:27.051                             : en:16. Round One: Australia
01:16:44.349                             : en:17. Invictus
01:21:01.356                             : en:18. Strictly Political
01:28:51.075                             : en:19. Hungry for Greatness
01:32:28.084                             : en:20. Message from Above
01:37:44.191                             : en:21. Your Country Is Proud
01:44:19.586                             : en:22. Lumu is Killing Us
01:48:50.398                             : en:23. Into Extra Time
01:53:14.829                             : en:24. This Is Our Destiny
01:58:11.626                             : en:25. Victory
02:02:30.885                             : en:26. 43 Million
02:06:38.591                             : en:27. End Credits

pb.wtf



Скачать Непокоренный через торрент http://pic.kartinco.top/images/1/n8o5q1c676.png Скачать фильм Непокоренный через торрент бесплантно в хорошем качестве Описание: Фильм о времени после падения апартеида, когда Южная Африка провела у себя Кубок мира по регби 1995 года. Тогда шел первый ... 10 10 1
Info! Золотая раздача, скачанное не засчитывается.
Торрент: Зарегистрирован [2012-07-31 17:44] · скачан: 29 раз
Статус: √ проверено
Размер: 7.46 GB
Как cкачать? Как скачать Непокоренный через торрент | qTorrent

% Раздел Тема Автор DL S | L
Фильмы [HD 720p, 1080p] (Хороший звук DUB, MVO) [ 13.52 GB ] Непокоренный / Invictus [2009 биография история BDRip DUB + Оригинал] shuller Скачать
1 | 0

28-11-2019 20:33  

Отключить всю рекламу на сайте

    Дорогой пользователь! Огромная просьба, поблагодарите релизера, оцените раздачу и оставьте свои комментарий, если Вы скачали Непокоренный через торрент бесплатно! Внесите свою лепту в развитие PiratBit!
    Комментировать посты могут только пользователи прошедшие не сложную регистрацию
    Показать сообщения:    

    Непокоренный через торрент
    Скачать бесплатно Непокоренный
    Непокоренный скачать торрент
    Непокоренный смотреть онлайн
    Cкачать фильм Непокоренный бесплатно
    Непокоренный скачать торрент в хорошем качестве
    Непокоренный смотреть онлайн бесплатно в хорошем качестве


    Вы не можете начинать темы
    Вы не можете отвечать на сообщения
    Вы не можете редактировать свои сообщения
    Вы не можете удалять свои сообщения
    Вы не можете голосовать в опросах
    Вы не можете прикреплять файлы к сообщениям
    Вы можете скачивать файлы