Death Stranding+DLC+АВТОАКТИВАЦИЯ

iTunes

iTunes

iTunes

1

iTunes

iTunes

iTunes

iTunes

iTunes

30
pack

$ от Little Big

ВАЖНО

!!Акция!!

Alien_RageХит недели

RePack

Resident Evil 21

ИГРА 18+

pack

RePack

jed

!!Акция!!

Alien_Rage

RePack

fifa19

RePack

Assassins Creed: Odyssey

RePack

NEED FOR SPEED™ PAYBACK

4 сезон

9 сезон

Бесстыжие 9 сезон

Все сериалы

все сериалы на PB.wtf

RePack

FAR CRY 5
  

Подъем с глубины / Deep Rising (Стивен Соммерс / Stephen Sommers) [1998, фантастика, боевик, приключения, HDTVRip 720p] DVO (West) + MVO (НТВ+, ОРТ) + AVO (Гаврилов, Живов) + Original + SUB (Rus, Eng) pb.wtf

Подъем с глубины через торрент pb.wtf

Размер: 4.26 GB | Добавлен: 7 лет 11 мес. назад | Торрент скачан:109 раз
Скачать  

02-08-2012 09:57 Подъем с глубины Скачать торрент  

Подъем с глубины / Deep Rising"Women and children first. You're next.." Год выпуска: 1998
Страна: США, Calimari Productions, Cinergi Pictures Entertainment Inc., Hollywood Pictures
Жанр: фантастика, боевик, комедия
Продолжительность: 01:41:46
Перевод: Профессиональный (многоголосый) + Авторский (одноголосый)
Оригинальная аудиодорожка: английский
Cубтитры: русские, английский
Режиссер: Стивен Соммерс / Stephen Sommers
В ролях: Трит Уильямс, Фамке Янссен, Энтони Хилд, Кевин Дж. О’Коннор, Уэс Студи, Деррик О’Коннор, Джейсон Флеминг, Клифф Кёртис, Клифтон Пауэлл Описание: Банда наемников отправляется на перехват океанского пассажирского лайнера с целью захвата драгоценностей и денег. Вооруженные до зубов, они рассчитывают на успех этой тщательно спланированной операции. Но боевая уверенность захватчиков сменяется ужасом перед небывалыми чудовищами, устроившими пир на корабле! У этих монстров здесь не было противников! И кровь тысяч людей не смогла утолить их жажду!


[font="Georgia"]Качество: HDTVRip 720p
Формат: MKV
Видео кодек: H.264
Аудио кодек: AC3
Видео: x264; 1280x542,(2,35:1), 3928 Кбит/сек, 25 кадр/сек, 0.226 bit/pixel
Аудио 1: AC3, 384 Кбит/сек, 6 каналов, 48.0 КГц - двухголосый (West)
Аудио 2: AC3, 192 Кбит/сек, 2 канала, 48.0 КГц - многоголосый (НТВ+)
Аудио 3: AC3, 192 Кбит/сек, 2 канала, 48.0 КГц - многоголосый (ОРТ)
Аудио 4: AC3, 384 Кбит/сек, 6 каналов, 48.0 КГц - одноголосый (Гаврилов)
Аудио 5: AC3, 384 Кбит/сек, 6 каналов, 48.0 КГц - одноголосый (Живов)
Аудио 6: AC3, 384 Кбит/сек, 6 каналов, 48.0 КГц - оригинал (English)
Формат субтитров: softsub (SRT)
Общее
Уникальный идентификатор : 192218705924411014912500586916509886168 (0x909BF9E5B1F097D2B778B3F195C7A6D8)
Полное имя : F:\ФИЛЬМЫ ТОРРЕНТА\Deep_rising.mkv
Формат : Matroska
Версия формата : Version 2
Размер файла : 4,26 Гбайт
Продолжительность : 1 ч. 42 м.
Общий поток : 5967 Кбит/сек
Дата кодирования : UTC 2011-08-13 10:56:58
Программа кодирования : mkvmerge v4.9.1 ('Ich will') сборка от Jul 11 2011 23:53:15
Библиотека кодирования : libebml v1.2.1 + libmatroska v1.1.1

Видео
Идентификатор : 1
Формат : AVC
Формат/Информация : Advanced Video Codec
Профиль формата : High@L4.1
Параметр CABAC формата : Да
Параметр ReFrames формата : 10 кадров
Идентификатор кодека : V_MPEG4/ISO/AVC
Продолжительность : 1 ч. 42 м.
Битрейт : 3928 Кбит/сек
Ширина : 1280 пикселей
Высота : 542 пикселя
Соотношение сторон : 2,35:1
Частота кадров : 25,000 кадров/сек
Цветовое пространство : YUV
Субдискретизация насыщенности : 4:2:0
Битовая глубина : 8 бит
Тип развёртки : Прогрессивная
Бит/(Пиксели*Кадры) : 0.226
Размер потока : 2,80 Гбайт (66%)
Язык : English

Аудио #1
Идентификатор : 2
Формат : AC-3
Формат/Информация : Audio Coding 3
Расширение режима : CM (complete main)
Идентификатор кодека : A_AC3
Продолжительность : 1 ч. 42 м.
Вид битрейта : Постоянный
Битрейт : 384 Кбит/сек
Каналы : 6 каналов
Расположение каналов : Front: L C R, Side: L R, LFE
Частота : 48,0 КГц
Битовая глубина : 16 бит
Метод сжатия : С потерями
Задержка видео : 8 мс.
Размер потока : 281 Мбайт (6%)
Заголовок : West
Язык : Russian

Аудио #2
Идентификатор : 3
Формат : AC-3
Формат/Информация : Audio Coding 3
Расширение режима : CM (complete main)
Идентификатор кодека : A_AC3
Продолжительность : 1 ч. 42 м.
Вид битрейта : Постоянный
Битрейт : 192 Кбит/сек
Каналы : 2 канала
Расположение каналов : Front: L R
Частота : 48,0 КГц
Битовая глубина : 16 бит
Метод сжатия : С потерями
Размер потока : 140 Мбайт (3%)
Заголовок : НТВ
Язык : Russian

Аудио #3
Идентификатор : 4
Формат : AC-3
Формат/Информация : Audio Coding 3
Расширение режима : CM (complete main)
Идентификатор кодека : A_AC3
Продолжительность : 1 ч. 42 м.
Вид битрейта : Постоянный
Битрейт : 192 Кбит/сек
Каналы : 2 канала
Расположение каналов : Front: L R
Частота : 48,0 КГц
Битовая глубина : 16 бит
Метод сжатия : С потерями
Размер потока : 140 Мбайт (3%)
Заголовок : ОРТ
Язык : Russian

Аудио #4
Идентификатор : 5
Формат : AC-3
Формат/Информация : Audio Coding 3
Расширение режима : CM (complete main)
Идентификатор кодека : A_AC3
Продолжительность : 1 ч. 42 м.
Вид битрейта : Постоянный
Битрейт : 384 Кбит/сек
Каналы : 6 каналов
Расположение каналов : Front: L C R, Side: L R, LFE
Частота : 48,0 КГц
Битовая глубина : 16 бит
Метод сжатия : С потерями
Задержка видео : 8 мс.
Размер потока : 281 Мбайт (6%)
Заголовок : Гаврилов
Язык : Russian

Аудио #5
Идентификатор : 6
Формат : AC-3
Формат/Информация : Audio Coding 3
Расширение режима : CM (complete main)
Идентификатор кодека : A_AC3
Продолжительность : 1 ч. 42 м.
Вид битрейта : Постоянный
Битрейт : 384 Кбит/сек
Каналы : 6 каналов
Расположение каналов : Front: L C R, Side: L R, LFE
Частота : 48,0 КГц
Битовая глубина : 16 бит
Метод сжатия : С потерями
Задержка видео : 8 мс.
Размер потока : 281 Мбайт (6%)
Заголовок : Живов
Язык : Russian

Аудио #6
Идентификатор : 7
Формат : AC-3
Формат/Информация : Audio Coding 3
Расширение режима : CM (complete main)
Идентификатор кодека : A_AC3
Продолжительность : 1 ч. 42 м.
Вид битрейта : Постоянный
Битрейт : 384 Кбит/сек
Каналы : 6 каналов
Расположение каналов : Front: L C R, Side: L R, LFE
Частота : 48,0 КГц
Битовая глубина : 16 бит
Метод сжатия : С потерями
Задержка видео : 8 мс.
Размер потока : 281 Мбайт (6%)
Заголовок : Оригинал
Язык : English

Текст #1
Идентификатор : 8
Формат : UTF-8
Идентификатор кодека : S_TEXT/UTF8
Идентификатор кодека/Информация : UTF-8 Plain Text
Язык : Russian

Текст #2
Идентификатор : 9
Формат : UTF-8
Идентификатор кодека : S_TEXT/UTF8
Идентификатор кодека/Информация : UTF-8 Plain Text
Язык : English
pb.wtf



Скачать Подъем с глубины через торрент http://64.imagebam.com/download/DWKYGCqRafbvBxS3dgs6hg/15868/158670230/Deep_Rising.jpg Скачать фильм Подъем с глубины через торрент бесплантно в хорошем качестве Описание: Банда наемников отправляется на перехват океанского пассажирского лайнера с целью захвата драгоценностей и денег. Вооруженные до ... 10 10 3
Info! Золотая раздача, скачанное не засчитывается.
Торрент: Зарегистрирован [2012-08-02 09:57] · скачан: 109 раз
Статус: √ проверено
Размер: 4.26 GB
Как cкачать? Как скачать Подъем с глубины через торрент | qTorrent

% Раздел Тема Автор DL S | L
Фильмы (HD 720p, 1080p) (48-60 fps) [ 4.1 GB ] Подъем с глубины / Deep Rising [1998 WEB-DLRip 720p / 60 FPS ] от R.G. HD-Films slaventi-69 Скачать
5 | 0
Фильмы с авторской озвучкой [ 2.18 GB ] Подъем с глубины / Deep Rising [1998 BDRip] 2x[AVO] killermax2013 Скачать
1 | 0
Фильмы (WEB-DL 720p, 1080p) [ 9.29 GB ] Подъем с глубины / Deep Rising [1998 HDTV 1080i] DVO + MVO + AVO + Original + SUB Lyfe Скачать
1 | 0
Фильмы до 2000 г. [ 1.36 GB ] Подъем с глубины / Deep Rising [1998 ... DVDRip] MoNaZ Скачать
1 | 0

28-11-2019 20:33  

Отключить всю рекламу на сайте

02-08-2012 12:09 Подъем с глубины Скачать торрент  

спасибо!pb.wtf



02-08-2012 14:15 Подъем с глубины Скачать торрент  

Смотрел этот фильмец давным давно, очень понравился.pb.wtf



02-08-2012 15:22 Подъем с глубины Скачать торрент  

хороший фильм. кто не видел смотреть!pb.wtf



    Дорогой пользователь! Огромная просьба, поблагодарите релизера, оцените раздачу и оставьте свои комментарий, если Вы скачали Подъем с глубины через торрент бесплатно! Внесите свою лепту в развитие PiratBit!
    Комментировать посты могут только пользователи прошедшие не сложную регистрацию
    Показать сообщения:    

    Подъем с глубины через торрент
    Скачать бесплатно Подъем с глубины
    Подъем с глубины скачать торрент
    Подъем с глубины смотреть онлайн
    Cкачать фильм Подъем с глубины бесплатно
    Подъем с глубины скачать торрент в хорошем качестве
    Подъем с глубины смотреть онлайн бесплатно в хорошем качестве


    Вы не можете начинать темы
    Вы не можете отвечать на сообщения
    Вы не можете редактировать свои сообщения
    Вы не можете удалять свои сообщения
    Вы не можете голосовать в опросах
    Вы не можете прикреплять файлы к сообщениям
    Вы можете скачивать файлы