Ссылка на приватное зеркало нашего сайта всего за 1$. Внимание количество ограничено!!!

2 сезон

iTunes

1 сезон

1

2 сезон

2 сезон

iTunes

1 сезон

RePack

30

Ultimate

ВАЖНО

ИГРА 18+

pack

RePack

MK11
pack

Забери бонус

RePack

jed

!!Акция!!

Alien_Rage

RePack

fifa19

RePack

Assassins Creed: Odyssey

RePack

NEED FOR SPEED™ PAYBACK

4 сезон

9 сезон

Бесстыжие 9 сезон

Все сериалы

все сериалы на PB.wtf

RePack

FAR CRY 5
  

Бобби Насилует Европу / Bobbi Violates Europe (Christoph Clark, Evil Angel) [2009 г., Anal Sex, Ass to Mouth, Cumshots, DVD5] pb.wtf

Бобби Насилует Европу через торрент pb.wtf

Размер: 4.36 GB | Добавлен: 8 лет 3 мес. назад | Торрент скачан:357 раз
Скачать  

02-08-2012 13:09 Бобби Насилует Европу Скачать торрент  

Бобби Насилует Европу / Bobbi Violates Europe



Год производства: 2009 г.
Released on DVD: July 20, 2009
Страна: USA
Жанр: Anal Sex, Ass to Mouth, Cumshots,
Продолжительность: 02:28:37 (фильм) + 00:56:14 (бонус)
Режиссер: Christoph Clark
Студия: Clark Euro Angel Video (Evil Angel)
Язык: Английский
В ролях: Aletta Ocean, Aliz, Blue Angel, Madison Parker, David Perry, Ian Scott, Mike Angelo, Steve Holmes

Описание:

America's most lovely (and nastiest) porn supermodel... takes on the cream of the euro sex fiends... Christoph Clark style! Viva Bpbbi Starr!
Legendary Eurohard auteur Christoph Clark makes a masterpiece with American porn slut supreme Bobbi Starr as his muse! Four scenes of increasingly kinky and crazed anal-pounding are made all the nastier by Bobbi's whore-next-door good looks as she instigates a truly sphincter-stretching lesbian three-way as well as plays fuck-slave for four insatiable Eastern European satyrs.
With Bobbi Violates Europe, Christoph Clark combines his Old World nasty with Bobbi Starr's New World shamelessness for four anal orgies of outrageous proportions! Also included is Behind the Scenes footage, as well as photo galleries.

Качество видео: DVD5
Аудио кодек: AC3
Видео: 7500 Kbps, 29.970 fps, 720*480 (or 853*480 /16:9), MPG2 = MPEG 2 (SVCD/DVD)
Аудио: 192 Kbps, 48000 Hz, 2 ch, 0x2000 = AC3 DVM [0x80]
Общее
Полное имя : Bobbi Violates Europe (2009) DVD5\VIDEO_TS\VTS_01_1.VOB
Формат : MPEG-PS
Размер файла : 1024 Мбайт
Продолжительность : 46 м.
Режим общего битрейта : Переменный
Общий поток : 3052 Кбит/сек
Видео
Идентификатор : 224 (0xE0)
Формат : MPEG Video
Версия формата : Version 2
Профиль формата : Main@Main
Параметр BVOP формата : Да
Параметр матрицы формата : Выборочная
Параметр GOP формата : M=3, N=15
Продолжительность : 46 м.
Вид битрейта : Переменный
Битрейт : 2799 Кбит/сек
Максимальный битрейт : 7500 Кбит/сек
Ширина : 720 пикселей
Высота : 480 пикселей
Соотношение сторон : 16:9
Частота кадров : 29,970 кадров/сек
Стандарт вещания : NTSC
Цветовое пространство : YUV
Субдискретизация насыщенности : 4:2:0
Битовая глубина : 8 бит
Тип развёртки : Чересстрочная
Порядок развёртки : Нижнее поле первое
Метод сжатия : С потерями
Бит/(Пиксели*Кадры) : 0.270
Размер потока : 939 Мбайт (92%)
Основные цвета : SMPTE 170M
Характеристики трансфера : SMPTE 170M
Коэффициенты матрицы : SMPTE 170M
Аудио
Идентификатор : 189 (0xBD)-128 (0x80)
Формат : AC-3
Формат/Информация : Audio Coding 3
Расширение режима : CM (complete main)
Режим смешивания : DVD-Video
Продолжительность : 46 м.
Вид битрейта : Постоянный
Битрейт : 192 Кбит/сек
Каналы : 2 канала
Расположение каналов : Front: L R
Частота : 48,0 КГц
Битовая глубина : 16 бит
Метод сжатия : С потерями
Размер потока : 64,4 Мбайт (6%)
Меню
pb.wtf



pack Скачать Бобби Насилует Европу через торрент http://i43.fastpic.ru/big/2012/0802/aa/713764d795192d90f6e79e86c6cb09aa.png Скачать фильм Бобби Насилует Европу через торрент бесплантно в хорошем качестве Описание: America's most lovely (and nastiest) porn supermodel... takes on the cream of the euro sex fiends... Christoph Clark style! Viva ... 7 10 2
Info! Золотая раздача, скачанное не засчитывается.
Торрент: Зарегистрирован [2012-08-02 13:10] · скачан: 357 раз
Статус: √ проверено
Размер: 4.36 GB
Как cкачать? Как скачать Бобби Насилует Европу через торрент | qTorrent

28-11-2019 20:33  

Отключить всю рекламу на сайте

    Дорогой пользователь! Огромная просьба, поблагодарите релизера, оцените раздачу и оставьте свои комментарий, если Вы скачали Бобби Насилует Европу через торрент бесплатно! Внесите свою лепту в развитие PiratBit!
    Комментировать посты могут только пользователи прошедшие не сложную регистрацию
    Показать сообщения:    

    Бобби Насилует Европу через торрент
    Скачать бесплатно Бобби Насилует Европу
    Бобби Насилует Европу скачать торрент
    Бобби Насилует Европу смотреть онлайн
    Cкачать фильм Бобби Насилует Европу бесплатно
    Бобби Насилует Европу скачать торрент в хорошем качестве
    Бобби Насилует Европу смотреть онлайн бесплатно в хорошем качестве


    Вы не можете начинать темы
    Вы не можете отвечать на сообщения
    Вы не можете редактировать свои сообщения
    Вы не можете удалять свои сообщения
    Вы не можете голосовать в опросах
    Вы не можете прикреплять файлы к сообщениям
    Вы можете скачивать файлы