Ссылка на приватное зеркало нашего сайта всего за 1$. Внимание количество ограничено!!!

2 сезон

iTunes

1 сезон

1

iTunes

iTunes

iTunes

1 сезон

RePack

30

ИГРА 18+

pack

ВАЖНО

!!Акция!!

Alien_RageХит недели

RePack

MK11
pack

Забери бонус

RePack

jed

!!Акция!!

Alien_Rage

RePack

fifa19

RePack

Assassins Creed: Odyssey

RePack

NEED FOR SPEED™ PAYBACK

4 сезон

9 сезон

Бесстыжие 9 сезон

Все сериалы

все сериалы на PB.wtf

RePack

FAR CRY 5
  

Турист / The Tourist (Флориан Хенкель фон Доннерсмарк / Florian Henckel von Donnersmarck) [2010 г., боевик, триллер, драма, BDRip 720p]DUB +Original, Sub rus + original eng pb.wtf

Турист через торрент pb.wtf

Размер: 4.78 GB | Добавлен: 8 лет 2 мес. назад | Торрент скачан:87 раз
Скачать  

02-08-2012 16:29 Турист Скачать торрент  

Турист / The Tourist Год выпуска: 2010
Страна: США, Франция
Жанр: Боевик, триллер, драма
Продолжительность: 01:43:28
Перевод: Профессиональный (полное дублирование)+ оригинальный английский
Cубтитры: есть

Режиссер: Флориан Хенкель фон Доннерсмарк
В ролях: Джонни Депп, Анджелина Джоли, Пол Беттани, Стивен Беркофф, Тимоти Далтон, Руфус Сьюэлл, Игорь Жижикин, Кристиан Де Сика, Алессио Бони, Даниэле Печчи Описание: Американский турист Фрэнк приезжает в Италию, чтобы залечить душевную рану. В Венеции он знакомится с необычной женщиной по имени Элиза. Израненное сердце, похоже, готово сдаться новой возлюбленной. Однако планы Фрэнка и Элизы грубейшим образом нарушает водоворот интриг и опасностей.


[font="Georgia"]Качество: BDRip (720p)
Формат: MKV
Видео кодек: H.264
Аудио кодек: AC3, DTS
Видео: x264; 1280x534,(2,40:1), 4147 Кбит/сек, 23,976 кадр/сек, 0.253 bit/pixel
Аудио 1: AC3, 640 Кбит/сек, 6 каналов, 48.0 КГц - Дубляж
Аудио 2: DTS, 1510 Кбит/сек, 6 канала, 48.0 КГц - English
Аудио 3: AC3, 192 Кбит/сек, 2 канала, 48.0 КГц - Commentary, English
Субтитры: русские (только надписи и пр.), русские (полные), английские, английские (комментарии)
Общее
Уникальный идентификатор : 224184756304461603872176247737512119214 (0xA8A869DCB8AFC847935F529B27604BAE)
Полное имя : F:\ФИЛЬМЫ ТОРРЕНТА\The.Tourist.2010.720p.BluRay.Rus.2xEng.mkv
Формат : Matroska
Версия формата : Version 2
Размер файла : 4,78 Гбайт
Продолжительность : 1 ч. 43 м.
Общий поток : 6620 Кбит/сек
Название фильма : The Tourist (2010)
Дата кодирования : UTC 2011-03-13 23:29:05
Программа кодирования : mkvmerge v4.5.0 ('Speed of Light') built on Feb 1 2011 02:10:32
Библиотека кодирования : libebml v1.2.0 + libmatroska v1.1.0

Видео
Идентификатор : 1
Формат : AVC
Формат/Информация : Advanced Video Codec
Профиль формата : High@L4.1
Параметр CABAC формата : Да
Параметр ReFrames формата : 11 кадров
Идентификатор кодека : V_MPEG4/ISO/AVC
Продолжительность : 1 ч. 43 м.
Битрейт : 4147 Кбит/сек
Ширина : 1280 пикселей
Высота : 534 пикселя
Соотношение сторон : 2,40:1
Частота кадров : 23,976 кадра/сек
Цветовое пространство : YUV
Субдискретизация насыщенности : 4:2:0
Битовая глубина : 8 бит
Тип развёртки : Прогрессивная
Бит/(Пиксели*Кадры) : 0.253
Размер потока : 3,00 Гбайт (63%)
Заголовок : The Tourist (2010)
Библиотека кодирования : x264 core 112 r1834kMod a51816a
Настройки программы : cabac=1 / ref=11 / deblock=1:-3:-3 / analyse=0x3:0x113 / me=umh / subme=10 / psy=1 / psy_rd=1.00:0.00 / mixed_ref=1 / me_range=32 / chroma_me=1 / trellis=2 / 8x8dct=1 / cqm=0 / deadzone=21,11 / fast_pskip=0 / chroma_qp_offset=-2 / threads=6 / sliced_threads=0 / nr=0 / decimate=0 / interlaced=0 / constrained_intra=0 / bframes=9 / b_pyramid=2 / b_adapt=2 / b_bias=0 / direct=3 / weightb=1 / open_gop=0 / weightp=2 / keyint=240 / keyint_min=24 / scenecut=40 / intra_refresh=0 / rc=crf / mbtree=0 / crf=16.8000 / qcomp=0.60 / qpmin=0 / qpmax=51 / qpstep=4 / ip_ratio=1.40 / pb_ratio=1.30 / aq=1:0.80
Язык : English

Аудио #1
Идентификатор : 2
Формат : AC-3
Формат/Информация : Audio Coding 3
Расширение режима : CM (complete main)
Идентификатор кодека : A_AC3
Продолжительность : 1 ч. 43 м.
Вид битрейта : Постоянный
Битрейт : 640 Кбит/сек
Каналы : 6 каналов
Расположение каналов : Front: L C R, Side: L R, LFE
Частота : 48,0 КГц
Битовая глубина : 16 бит
Метод сжатия : С потерями
Размер потока : 474 Мбайт (10%)
Заголовок : AC3 5.1ch 640 kbps - Дубляж
Язык : Russian

Аудио #2
Идентификатор : 3
Формат : DTS
Формат/Информация : Digital Theater Systems
Идентификатор кодека : A_DTS
Продолжительность : 1 ч. 43 м.
Вид битрейта : Постоянный
Битрейт : 1510 Кбит/сек
Каналы : 6 каналов
Расположение каналов : Front: L C R, Side: L R, LFE
Частота : 48,0 КГц
Битовая глубина : 24 бит
Метод сжатия : С потерями
Размер потока : 1,09 Гбайт (23%)
Заголовок : DTS 5.1ch 1536 kbps
Язык : English

Аудио #3
Идентификатор : 4
Формат : AC-3
Формат/Информация : Audio Coding 3
Профиль формата : Dolby Digital
Расширение режима : CM (complete main)
Идентификатор кодека : A_AC3
Продолжительность : 1 ч. 43 м.
Вид битрейта : Постоянный
Битрейт : 192 Кбит/сек
Каналы : 2 канала
Расположение каналов : Front: L R
Частота : 48,0 КГц
Битовая глубина : 16 бит
Метод сжатия : С потерями
Размер потока : 142 Мбайт (3%)
Заголовок : AC3 2.0ch 192 kbps - Commentary
Язык : English

Текст #1
Идентификатор : 5
Формат : ASS
Идентификатор кодека : S_TEXT/ASS
Идентификатор кодека/Информация : Advanced Sub Station Alpha
Метод сжатия : Без потерь
Заголовок : Forced
Язык : Russian

Текст #2
Идентификатор : 6
Формат : UTF-8
Идентификатор кодека : S_TEXT/UTF8
Идентификатор кодека/Информация : UTF-8 Plain Text
Язык : Russian

Текст #3
Идентификатор : 7
Формат : ASS
Идентификатор кодека : S_TEXT/ASS
Идентификатор кодека/Информация : Advanced Sub Station Alpha
Метод сжатия : Без потерь
Язык : English

Текст #4
Идентификатор : 8
Формат : ASS
Идентификатор кодека : S_TEXT/ASS
Идентификатор кодека/Информация : Advanced Sub Station Alpha
Метод сжатия : Без потерь
Заголовок : Commentary
Язык : English

Меню
00:00:00.000 : en:00:00:00.000
00:08:05.860 : en:00:08:05.860
00:11:30.857 : en:00:11:30.857
00:17:08.277 : en:00:17:08.277
00:25:06.672 : en:00:25:06.672
00:30:27.117 : en:00:30:27.117
00:34:13.009 : en:00:34:13.009
00:40:59.582 : en:00:40:59.582
00:49:29.842 : en:00:49:29.842
00:55:22.736 : en:00:55:22.736
01:00:55.944 : en:01:00:55.944
01:06:24.314 : en:01:06:24.314
01:12:52.535 : en:01:12:52.535
01:17:40.739 : en:01:17:40.739
01:24:38.365 : en:01:24:38.365
01:30:16.536 : en:01:30:16.536
pb.wtf



Скачать Турист через торрент http://lostpic.net/images/be23f32a3f924ae8cf7958f2ef933a5f.png Скачать фильм Турист через торрент бесплантно в хорошем качестве Описание: Американский турист Фрэнк приезжает в Италию, чтобы залечить душевную рану. В Венеции он знакомится с необычной женщиной по ... 10 10 3
Info! Золотая раздача, скачанное не засчитывается.
Торрент: Зарегистрирован [2012-08-02 16:29] · скачан: 87 раз
Статус: √ проверено
Размер: 4.78 GB
Как cкачать? Как скачать Турист через торрент | qTorrent

28-11-2019 20:33  

Отключить всю рекламу на сайте

02-08-2012 16:49 Турист Скачать торрент  

Большое спасибо за релиз -=Cherry=- , а так вообще классный фильм всем советую посмотреть!pb.wtf



02-08-2012 17:16 Турист Скачать торрент  

Прикольнёмpb.wtf



    Дорогой пользователь! Огромная просьба, поблагодарите релизера, оцените раздачу и оставьте свои комментарий, если Вы скачали Турист через торрент бесплатно! Внесите свою лепту в развитие PiratBit!
    Комментировать посты могут только пользователи прошедшие не сложную регистрацию
    Показать сообщения:    

    Турист через торрент
    Скачать бесплатно Турист
    Турист скачать торрент
    Турист смотреть онлайн
    Cкачать фильм Турист бесплатно
    Турист скачать торрент в хорошем качестве
    Турист смотреть онлайн бесплатно в хорошем качестве


    Вы не можете начинать темы
    Вы не можете отвечать на сообщения
    Вы не можете редактировать свои сообщения
    Вы не можете удалять свои сообщения
    Вы не можете голосовать в опросах
    Вы не можете прикреплять файлы к сообщениям
    Вы можете скачивать файлы