MEGA SALE -50% FORZA HORIZON 4 ULTIMATE+ВСЕ DLC+ОНЛАЙН всего за 599р. 299 руб. (супер цена). Внимание количество ограничено!!!

iTunes

1+1

iTunes

мы

iTunes

1

iTunes

Чернобыль

iTunes

Ральф против интернета

Лицензия

ПШазам

Лицензия

Игра престолов

Лицензия

30
pack

ВАЖНО

!!Акция!!

Alien_RageХит недели

RePack

Resident Evil 21

ИГРА 18+

pack

RePack

Metro:Exodus

!!Акция!!

Alien_Rage

RePack

fifa19

RePack

Assassins Creed: Odyssey

RePack

NEED FOR SPEED™ PAYBACK

3 сезон

9 сезон

Бесстыжие 9 сезон

Все сериалы

все сериалы на PB.wtf

RePack

FAR CRY 5
Ребята, катастрофически не хватает 7730р. для оплаты серверов за ИЮЛЬ (всвязи с блокировками трафик упал в 3 раза), 1-2р., выручайте.
  

Последний патрон / Ultimul cartus (Серджиу Николаеску) [1975 г., боевик, криминал, DVDRip, DUB (лицензия)] pb.wtf

Последний патрон через торрент pb.wtf

Размер: 700 MB | Добавлен: 7 лет назад | Торрент скачан:24 раза
Скачать  

03-08-2012 11:28 Последний патрон Скачать торрент  

Последний патрон / Ultimul cartus

Год выпуска: 1975
Страна: Румыния
Жанр: боевик, криминал
Продолжительность: 01:34:47
Перевод: Дубляж (Лицензия)

Режиссер: Серджиу Николаеску
Продюссер: Lidia Popita
Сценарий: Титус Попович, Петре Сэлкудяну

Премьера в мире: 26 июня 1975

IMDb: 6.90 (331)
Кинопоиск:7.180 70

В ролях: Марга Барбу /Marga Barbu, Ион Бесою /Ion Besoiu, Иларион Чобану /Ilarion Ciobanu, Джордже Константин /George Constantin, Жан Константин /Jean Constantin, Нинета Густи /Nineta Gusti, Эрнест Мафтей /Ernest Maftei, Серджиу Николаеску /Sergiu Nicolaescu, Себастьян Папаяни /Sebastian Papaiani, Амза Пелля /Amza Pellea

Описание: Декабрь 1945 года. Освобожденный по решению суда антиквар Семако вновь берется за свое. Бандиты бесчинствуют, но на их пути по прежнему стоит комиссар Михай Роман. Кровь льется рекой, гибнут близкие Михаю люди. Насилие, кажется, торжествует, — однако, комиссар Роман приберег для Симаки последний патрон.

Доп. информация: СССР- 26 млн. зрителей

Качество: DVDRip
Формат: AVI
Видео кодек: XviD
Аудио кодек: AC3
Видео: 608x448 (1.36:1), 25 fps, XviD Final 1.1 (build 41) ~888 kbps avg, 0.13 bit/pixel
Аудио#1: 44.100 kHz, MPEG Layer 3, 1 ch, ~64.00 kbps avg (Советский дубляж)
Аудио#2: 44.100 kHz, MPEG Layer 3, 1 ch, ~64.00 kbps avg (Румынский)









Общее
Полное имя : H:torrentPosledniy.patron.DVDRip-сторонний ресурс.avi
Формат : AVI
Формат/Информация : Audio Video Interleave
Размер файла : 700 Мбайт
Продолжительность : 1 ч. 34 м.
Общий поток : 1032 Кбит/сек
Название фильма : Ultimul Cartus

Видео
Идентификатор : 0
Формат : MPEG-4 Visual
Профиль формата : Advanced Simple@L5
Параметр BVOP формата : 1
Параметр QPel формата : Нет
Параметр GMC формата : Без точки перехода
Параметр матрицы формата : Default (H.263)
Идентификатор кодека : XVID
Идентификатор кодека/Подсказка : XviD
Продолжительность : 1 ч. 34 м.
Битрейт : 890 Кбит/сек
Ширина : 608 пикс.
Высота : 448 пикс.
Соотношение сторон : 4:3
Частота кадров : 25,000 кадр/сек
Цветовое пространство : YUV
Подвыборка цветности : 4:2:0
Битовая глубина : 8 бит
Тип развёртки : Прогрессивная
Метод сжатия : С потерями
Бит/(Пиксели*Кадры) : 0.131
Размер потока : 603 Мбайт (86%)
Библиотека кодирования : XviD 1.1.0 (UTC 2005-11-22)

Аудио #1
Идентификатор : 1
Формат : MPEG Audio
Версия формата : Version 1
Профиль формата : Layer 3
Идентификатор кодека : 55
Идентификатор кодека/Подсказка : MP3
Продолжительность : 1 ч. 34 м.
Вид битрейта : Постоянный
Битрейт : 64,0 Кбит/сек
Каналы : 1 канал
Частота : 44,1 КГц
Метод сжатия : С потерями
Размер потока : 43,4 Мбайт (6%)
Выравнивание : Разделение по промежуткам
Продолжительность промежутка : 40 мс. (1,00 видеокадр)
Время предзагрузки промежутка : 500 ms

Аудио #2
Идентификатор : 2
Формат : MPEG Audio
Версия формата : Version 1
Профиль формата : Layer 3
Идентификатор кодека : 55
Идентификатор кодека/Подсказка : MP3
Продолжительность : 1 ч. 34 м.
Вид битрейта : Постоянный
Битрейт : 64,0 Кбит/сек
Каналы : 1 канал
Частота : 44,1 КГц
Метод сжатия : С потерями
Размер потока : 43,4 Мбайт (6%)
Выравнивание : Разделение по промежуткам
Продолжительность промежутка : 40 мс. (1,00 видеокадр)
Время предзагрузки промежутка : 500 ms

pb.wtf



Скачать Последний патрон через торрент http://pic.kartinco.top/images/1/7a3z2sgxan.jpg Скачать фильм Последний патрон через торрент бесплантно в хорошем качестве Описание: Декабрь 1945 года. Освобожденный по решению суда антиквар Семако вновь берется за свое. Бандиты бесчинствуют, но на их пути по ... 5 10 1
Info! Золотая раздача, скачанное не засчитывается.
Торрент: Зарегистрирован [2012-08-03 11:28] · скачан: 24 раз
Статус: √ проверено
Размер: 700 MB
Как cкачать? Как скачать Последний патрон через торрент | qTorrent

% Раздел Тема Автор DL S | L
Классика зарубежного кино [ 1.36 GB ] Последний патрон / Ultimul cartus [1975 DVDRip ] slaventi-69 Скачать
1 | 0


>> Регистрируемся здесь <<






Отзывы и комментарии о схеме читаем и пишем здесь: ---> Отзывы и комментарии о схеме

Новые благодарочки в телеграм довольных пользователей:
скриншот   скриншот   скриншот   скриншот   скриншот
    Дорогой пользователь! Огромная просьба, поблагодарите релизера, оцените раздачу и оставьте свои комментарий, если Вы скачали Последний патрон через торрент бесплатно! Внесите свою лепту в развитие PiratBit!
    Комментировать посты могут только пользователи прошедшие не сложную регистрацию
    Показать сообщения:    

    Последний патрон через торрент
    Скачать бесплатно Последний патрон
    Последний патрон скачать торрент
    Последний патрон смотреть онлайн
    Cкачать фильм Последний патрон бесплатно
    Последний патрон скачать торрент в хорошем качестве
    Последний патрон смотреть онлайн бесплатно в хорошем качестве


    Вы не можете начинать темы
    Вы не можете отвечать на сообщения
    Вы не можете редактировать свои сообщения
    Вы не можете удалять свои сообщения
    Вы не можете голосовать в опросах
    Вы не можете прикреплять файлы к сообщениям
    Вы можете скачивать файлы