Ссылка на приватное зеркало нашего сайта всего за 1$. Внимание количество ограничено!!!

2 сезон

iTunes

1 сезон

1

iTunes

iTunes

iTunes

1 сезон

RePack

30

ИГРА 18+

pack

ВАЖНО

!!Акция!!

Alien_RageХит недели

RePack

MK11
pack

Забери бонус

RePack

jed

!!Акция!!

Alien_Rage

RePack

fifa19

RePack

Assassins Creed: Odyssey

RePack

NEED FOR SPEED™ PAYBACK

4 сезон

9 сезон

Бесстыжие 9 сезон

Все сериалы

все сериалы на PB.wtf

RePack

FAR CRY 5
  

22 мая / 22 mei (Коэн Мортье) [2010 г., фэнтези, триллер, драма, HDRip, VO] pb.wtf

22 мая через торрент pb.wtf

Размер: 1.47 GB | Добавлен: 8 лет 2 мес. назад | Торрент скачан:46 раз
Скачать  

04-08-2012 10:13 22 мая Скачать торрент  

22 мая / 22 mei

Год выпуска: 2010
Страна: Бельгия
Жанр: фэнтези, триллер, драма
Продолжительность: 01:28:24
Перевод: Любительский (одноголосый)

Режиссер: Коэн Мортье
Продюссер: Eurydice Gysel, Коэн Мортье, Ребекка Гарридо
Сценарий: Коэн Мортье

Премьера в мире: 15 октября 2010

IMDb: 5.90 (350)
Кинопоиск: 6.461 155

В ролях: Ян Хамменекер, Сэм Ловик, Франсуа Букелаэрс, Юим Юилаэрт, Норман Баэрт, Титус Де Воогт, Гюнтер Ламу, Барбара Кэллеверт, Бернадетт Дэмман, Тристан Верстевен

Описание: Главный герой картины, Сэм, просыпается одним утром и готовится к своим повседневным делам. Однако происходит неожиданное. В центре супермаркета, где он работает, взрывается бомба. Сэм мчится в супермаркет, чтобы спасти выживших. Он вытаскивает их одного за другим, пока не случается что-то ужасное.

В приступе паники он убегает и бежит, пока не падает от истощения. Внезапно женский голос заставляет его поднять голову. Это одна из спасенных выживших, и она хочет знать, почему самоубийца сделал это. С этого момента начинается сюрреалистическое ретроспективное путешествие Сэма к истокам ужасных событий.

Доп. информация: Долгожданный фильм от режиссёра поднашумевшего в определённых кругах «Ex-Drummer» Коэна Мортье наконец-то появился на русском языке. Впечатления от просмотра двоякие.

Само повествование ведётся крайне тягуче, не смотря на то что «замес» происходит в первые минут 5—7. Унылое утро охранника молла начинается с выкуренной до фильтра сигареты и резко обрывается взрывом. Огонь, сажа, пепел, вопящие тела. Детские туфли в руках, женщина ведущая непонятные монологи.

Дальше мы в обратной прокрутке на протяжении полутора часов разбираемся что же произошло на самом деле, параллельно знакомясь с участвующими в повествовании экспонатами.

Все лица знакомы по «Ex-Drummer»: тут тебе и лысый Иван в главной роли, и заросший Вербек-фотограф, и бородатый ДеГейтер с той же агрессией на женский пол, и Большой Член в рубашке — как оказалось полицай.

Большую часть фильма зритель наблюдает статичные кадры жизни обычных людей — посетителей молла. Кто где был когда «умер король», то есть в данном случае произошёл взрыв. Кто-то работал, ненавидя свою жизнь, кто-то ругался с любимой женщиной, кто-то дрочил в примерочной.

Отдельно опять нужно написать про музыкальное сопровождение. Режиссёр, судя по всему, неровно дышит к приставке «пост» в контексте инструментальной музыки. Редкое удачное соотношение видеоряда и общего посыла фильма с музыкой. По этому пункту ставлю высший балл.

Кульминация фильма шикарна, в принципе это единственное что действительно заслуживает внимания. Посмотрите, не буду спойлерить.

По-настоящему искренним человек, видимо, может быть только после смерти — тогда когда это уже никому не нужно.

Ожидалось больше, но фильм хорош.

С нетерпением ждём обещанной экранизации «Призраков» Палланика.

Качество: HDRip
Формат: AVI
Видео кодек: XviD
Аудио кодек: AC3
Видео: 720x384 (1.88:1), 25 fps, XviD 1.2 beta 1 (build 43) ~1987 kbps avg, 0.29 bit/pixel
Аудио#1: 48 kHz, AC3 Dolby Digital, 3/2 (L,C,R,l,r) + LFE ch, ~384 kbps








Общее
Полное имя : H:torrent22.maya.2010.HDRip.сторонний ресурс.avi
Формат : AVI
Формат/Информация : Audio Video Interleave
Размер файла : 1,47 Гбайт
Продолжительность : 1 ч. 28 м.
Общий поток : 2381 Кбит/сек
Программа кодирования : VirtualDubMod 1.5.10.2 (build 2540/release)
Библиотека кодирования : VirtualDubMod build 2540/release

Видео
Идентификатор : 0
Формат : MPEG-4 Visual
Профиль формата : Advanced Simple@L5
Параметр BVOP формата : 2
Параметр QPel формата : Нет
Параметр GMC формата : Без точки перехода
Параметр матрицы формата : Default (MPEG)
Идентификатор кодека : XVID
Идентификатор кодека/Подсказка : XviD
Продолжительность : 1 ч. 28 м.
Битрейт : 1987 Кбит/сек
Ширина : 720 пикс.
Высота : 384 пикс.
Соотношение сторон : 1,875
Частота кадров : 25,000 кадр/сек
Цветовое пространство : YUV
Подвыборка цветности : 4:2:0
Битовая глубина : 8 бит
Тип развёртки : Прогрессивная
Метод сжатия : С потерями
Бит/(Пиксели*Кадры) : 0.288
Размер потока : 1,23 Гбайт (83%)
Библиотека кодирования : XviD 1.2.0SMP (UTC 2006-01-08)

Аудио
Идентификатор : 1
Формат : AC-3
Формат/Информация : Audio Coding 3
Расширение режима : CM (complete main)
Идентификатор кодека : 2000
Продолжительность : 1 ч. 28 м.
Вид битрейта : Постоянный
Битрейт : 384 Кбит/сек
Каналы : 6 каналов
Расположение каналов : Front: L C R, Side: L R, LFE
Частота : 48,0 КГц
Битовая глубина : 16 бит
Метод сжатия : С потерями
Размер потока : 243 Мбайт (16%)
Выравнивание : Разделение по промежуткам
Продолжительность промежутка : 40 мс. (1,00 видеокадр)
Время предзагрузки промежутка : 500 ms

pb.wtf



Скачать 22 мая через торрент http://pic.kartinco.top/images/1/67actprtbi.jpg Скачать фильм 22 мая через торрент бесплантно в хорошем качестве Описание: Главный герой картины, Сэм, просыпается одним утром и готовится к своим повседневным делам. Однако происходит неожиданное. В ... 5 10 2
Info! Золотая раздача, скачанное не засчитывается.
Торрент: Зарегистрирован [2012-08-04 10:13] · скачан: 46 раз
Статус: √ проверено
Размер: 1.47 GB
Как cкачать? Как скачать 22 мая через торрент | qTorrent

% Раздел Тема Автор DL S | L
Фильмы 2010 [ 1.37 GB ] 22 мая / 22 mei [2010 DVDRip] coc900 Скачать
1 | 0

28-11-2019 20:33  

Отключить всю рекламу на сайте

    Дорогой пользователь! Огромная просьба, поблагодарите релизера, оцените раздачу и оставьте свои комментарий, если Вы скачали 22 мая через торрент бесплатно! Внесите свою лепту в развитие PiratBit!
    Комментировать посты могут только пользователи прошедшие не сложную регистрацию
    Показать сообщения:    

    22 мая через торрент
    Скачать бесплатно 22 мая
    22 мая скачать торрент
    22 мая смотреть онлайн
    Cкачать фильм 22 мая бесплатно
    22 мая скачать торрент в хорошем качестве
    22 мая смотреть онлайн бесплатно в хорошем качестве


    Вы не можете начинать темы
    Вы не можете отвечать на сообщения
    Вы не можете редактировать свои сообщения
    Вы не можете удалять свои сообщения
    Вы не можете голосовать в опросах
    Вы не можете прикреплять файлы к сообщениям
    Вы можете скачивать файлы