Мега распродажа FORZA HORIZON 4 ULTIMATE+ВСЕ DLC+ОНЛАЙН всего за 499р. 349 руб. (супер цена). Внимание количество ограничено!!!

iTunes

1+1

iTunes

мы

iTunes

1

1 сезон

Чернобыль

1 сезон

Ральф против интернета

Лицензия

ПШазам

8 сезон

Игра престолов

Лицензия

30
pack

ВАЖНО

!!Акция!!

Alien_RageХит недели

RePack

Resident Evil 21

ИГРА 18+

pack

RePack

Metro:Exodus

!!Акция!!

Alien_Rage

RePack

fifa19

RePack

Assassins Creed: Odyssey

RePack

NEED FOR SPEED™ PAYBACK

3 сезон

9 сезон

Бесстыжие 9 сезон

Все сериалы

все сериалы на PB.wtf

RePack

FAR CRY 5
Ребята, катастрофически не хватает 2730р. для оплаты серверов за ИЮНЬ (всвязи с блокировками трафик упал в 3 раза), 1-2р., выручайте.
  

Мальчишка / Kid (Джон Марк Робинсон) [1990 г., боевик, триллер, VHSRip, VO] pb.wtf

Мальчишка через торрент pb.wtf

Размер: 1.37 GB | Добавлен: 6 лет 11 мес. назад | Торрент скачан:13 раз
Скачать  

04-08-2012 14:59 Мальчишка Скачать торрент  

Мальчишка / Kid
Год выпуска: 1990
Страна: США
Жанр: боевик, триллер
Продолжительность: 01:26:28
Перевод: Профессиональный (одноголосый)

Режиссер: Джон Марк Робинсон
Продюссер: Питер Абрамс, Роберт Л. Леви, Натан Захави
Сценарий: Лесли Боэм

Премьера в мире: 2 ноября 1990

MPAA: R - лицам до 17 лет обязательно присутствие взрослого
IMDb: 5.90 (305)
Кинопоиск: 7.276 29

В ролях: С.Томас Хауэлл, Сара Триггер, Брайан Остин Грин, Дейл Дай, Майкл Боуэн, Дэймон Мартин, Ленор Касдорф, Майкл Кавана, Тони Эппер, Дон Колье, Дон Бэйкер, Дон Старр, Фред Шугерман, Хезер МакНейр, Джей Бернард, Джеймс Эрик, Энтони Расселл, Уорнер МакКэй, Джейби Уоррен

Описание: Молодой человек возвращается в родной город спустя 10 лет после трагической гибели своих родителей. Он возвращается, чтобы мстить. Потому что родители были убиты кучкой людей, лица которых навсегда врезались в детскую память...

Качество: VHSRip
Формат: AVI
Видео кодек: XviD
Аудио кодек: AC3
Видео: 656x496 (1.32:1), 25 fps, XviD Final 1.0 (build 34) ~2001 kbps avg, 0.25 bit/pixel
Аудио#1: 48 kHz, AC3 Dolby Digital, 2/0 (L,R) ch, ~256.00 kbps avg










Общее
Полное имя : H:torrentMalchishka.1990.XviD.VHSRip.сторонний ресурс.avi
Формат : AVI
Формат/Информация : Audio Video Interleave
Размер файла : 1,37 Гбайт
Продолжительность : 1 ч. 26 м.
Общий поток : 2264 Кбит/сек
Программа кодирования : VirtualDubMod 1.5.4.1 (build 2178/release)
Библиотека кодирования : VirtualDubMod build 2178/release

Видео
Идентификатор : 0
Формат : MPEG-4 Visual
Профиль формата : Advanced Simple@L5
Параметр BVOP формата : 1
Параметр QPel формата : Нет
Параметр GMC формата : Без точки перехода
Параметр матрицы формата : Выборочная
Идентификатор кодека : XVID
Идентификатор кодека/Подсказка : XviD
Продолжительность : 1 ч. 26 м.
Битрейт : 2001 Кбит/сек
Ширина : 656 пикс.
Высота : 496 пикс.
Соотношение сторон : 4:3
Частота кадров : 25,000 кадр/сек
Цветовое пространство : YUV
Подвыборка цветности : 4:2:0
Битовая глубина : 8 бит
Тип развёртки : Прогрессивная
Метод сжатия : С потерями
Бит/(Пиксели*Кадры) : 0.246
Размер потока : 1,21 Гбайт (88%)
Библиотека кодирования : XviD 1.0.0 (UTC 2004-05-09)

Аудио
Идентификатор : 1
Формат : AC-3
Формат/Информация : Audio Coding 3
Расширение режима : CM (complete main)
Идентификатор кодека : 2000
Продолжительность : 1 ч. 26 м.
Вид битрейта : Постоянный
Битрейт : 256 Кбит/сек
Каналы : 2 канала
Расположение каналов : Front: L R
Частота : 48,0 КГц
Битовая глубина : 16 бит
Метод сжатия : С потерями
Размер потока : 158 Мбайт (11%)
Выравнивание : Разделение по промежуткам
Продолжительность промежутка : 96 мс. (2,40 видеокадра)
Время предзагрузки промежутка : 96 ms

pb.wtf



Скачать Мальчишка через торрент http://pic.kartinco.top/images/1/s82yi7wh1d.jpg Скачать фильм Мальчишка через торрент бесплантно в хорошем качестве Описание: Молодой человек возвращается в родной город спустя 10 лет после трагической гибели своих родителей. Он возвращается, чтобы ... 5 10 2
Info! Золотая раздача, скачанное не засчитывается.
Торрент: Зарегистрирован [2012-08-04 14:59] · скачан: 13 раз
Статус: √ проверено
Размер: 1.37 GB
Как cкачать? Как скачать Мальчишка через торрент | qTorrent

% Раздел Тема Автор DL S | L
Фильмы с авторской озвучкой [ 1.46 GB ] Малыш-мотоциклист / Мальчишка с мопедом-внедорожником / The Dirt Bike Kid [1985 HDRip] [AVO] killermax2013 Скачать
1 | 0


>> Регистрируемся здесь <<






Отзывы и комментарии о схеме читаем и пишем здесь: ---> Отзывы и комментарии о схеме

Новые благодарочки в телеграм довольных пользователей:
скриншот   скриншот   скриншот   скриншот   скриншот
    Дорогой пользователь! Огромная просьба, поблагодарите релизера, оцените раздачу и оставьте свои комментарий, если Вы скачали Мальчишка через торрент бесплатно! Внесите свою лепту в развитие PiratBit!
    Комментировать посты могут только пользователи прошедшие не сложную регистрацию
    Показать сообщения:    

    Мальчишка через торрент
    Скачать бесплатно Мальчишка
    Мальчишка скачать торрент
    Мальчишка смотреть онлайн
    Cкачать фильм Мальчишка бесплатно
    Мальчишка скачать торрент в хорошем качестве
    Мальчишка смотреть онлайн бесплатно в хорошем качестве


    Вы не можете начинать темы
    Вы не можете отвечать на сообщения
    Вы не можете редактировать свои сообщения
    Вы не можете удалять свои сообщения
    Вы не можете голосовать в опросах
    Вы не можете прикреплять файлы к сообщениям
    Вы можете скачивать файлы