2 сезон

iTunes

MVO

1

2 сезон

iTunes

iTunes

1 сезон

RePack

30

Новинка

ВАЖНО

ИГРА 18+

pack

RePack

MK11
pack

Легкие деньги

RePack

jed

RePack

fifa19

RePack

RDR2

RePack

NEED FOR SPEED™ PAYBACK

4 сезон

9 сезон

Бесстыжие 9 сезон

Все сериалы

все сериалы на PB.wtf

RePack

FAR CRY 5

Anonymous, доброй ночи, мы не успеваем собрать деньги на оплату серверов за декабрь и январь, помогите нам пожалуйста в это трудное время. В качестве благодарности мы отключим Вам всю рекламу на сайте (укажите свой ник в строку Ваше имя)!

×
  
Magnet ссылка

Златовласка и три медведя. Друзья познаются в беде / Goldilocks and the Three Bears (Ричард Слапчински) [2004 г., мультфильм, DVD5, DUB] pb.wtf

Скачать  

05-08-2012 05:55 Златовласка и три медведя. Друзья познаются в беде Скачать торрент  

Златовласка и три медведя. Друзья познаются в беде / Goldilocks and the Three Bears

Год выпуска: 2004
Страна: Австралия / Burbank Animation Studios PTY.TTD.
Жанр: мультфильм
Продолжительность: 00:44:12
Перевод: Дубляж

Режиссер: Ричард Слапчински

релиз на DVD: 19 января 2012, «CP-Digital»



Описание: Однажды красавица Златовласка попала в лесной домик трех медведей и подружилась с косолапыми. Но как-то раз ее новые друзья неожиданно пропали, и девушка отправляется на их поиски. Оказалось, что медведи выступают в цирке. Их заставляют веселить публику, а потом держат в железной клетке. Девушка помогает топтыгиным убежать из цирка и возвратиться в их дом в лесу.

История о маленькой девочке Златовласке для удобства родителей разделена на две части.

Доп. информация: Серия: Сказки Старого Волшебника

Качество: DVD5
Формат: DVD Video
Видео кодек: MPEG2
Аудио кодек: AC3
Видео: PAL, 720x576 (4:3), ~ 4310 Кбит/сек, 25,000 кадров/сек
Аудио: Русский Dolby Surround 5.1 (384 Кбит/сек, 6 каналов, 48,0 КГц)
Субтитры: отсутствуют
Общее
Полное имя : E:\VIDEO_TS\VTS_01_2.VOB
Формат : MPEG-PS
Размер файла : 493 Мбайт
Продолжительность : 14 м.
Режим общего битрейта : Переменный
Общий поток : 4790 Кбит/сек

Видео
Идентификатор : 224 (0xE0)
Формат : MPEG Video
Версия формата : Version 2
Профиль формата : Main@Main
Параметр BVOP формата : Да
Параметр матрицы формата : Выборочная
Параметр GOP формата : M=3, N=12
Продолжительность : 14 м.
Вид битрейта : Переменный
Битрейт : 4310 Кбит/сек
Максимальный битрейт : 7200 Кбит/сек
Ширина : 720 пикселей
Высота : 576 пикселей
Соотношение сторон : 4:3
Частота кадров : 25,000 кадров/сек
Стандарт вещания : PAL
Цветовое пространство : YUV
Субдискретизация насыщенности : 4:2:0
Битовая глубина : 8 бит
Тип развёртки : Чересстрочная
Порядок развёртки : Нижнее поле первое
Метод сжатия : С потерями
Бит/(Пиксели*Кадры) : 0.416
Размер потока : 443 Мбайт (90%)

Аудио
Идентификатор : 189 (0xBD)-128 (0x80)
Формат : AC-3
Формат/Информация : Audio Coding 3
Расширение режима : CM (complete main)
Режим смешивания : DVD-Video
Продолжительность : 14 м.
Вид битрейта : Постоянный
Битрейт : 384 Кбит/сек
Каналы : 6 каналов
Расположение каналов : Front: L C R, Side: L R, LFE
Частота : 48,0 КГц
Битовая глубина : 16 бит
Метод сжатия : С потерями
Задержка видео : -720 мс.
Размер потока : 39,5 Мбайт (8%)

pb.wtf





Последний раз редактировалось: makarevich (2012-08-05 19:24), всего редактировалось 1 раз

28-11-2019 20:33  

Отключить всю рекламу на сайте

05-08-2012 10:59 Златовласка и три медведя. Друзья познаются в беде Скачать торрент  

makarevich
Укажи битрейт и частоту видео.pb.wtf



06-08-2012 05:37 Златовласка и три медведя. Друзья познаются в беде Скачать торрент  

-=Cherry=- писал(а):

makarevich
Укажи битрейт и частоту видео.

указалpb.wtf



06-08-2012 19:55 Златовласка и три медведя. Друзья познаются в беде Скачать торрент  

интересно при статусе: ? недооформлено
сколько релиз продержится.
-=Cherry=- конкретно игнорирует ЛС, задумала что-то нехорошее pb.wtf



    Дорогой пользователь! Огромная просьба, поблагодарите релизера, оцените раздачу и оставьте свои комментарий, если Вы скачали Златовласка и три медведя. Друзья познаются в беде через торрент бесплатно! Внесите свою лепту в развитие PiratBit!
    Комментировать посты могут только пользователи прошедшие не сложную регистрацию
    Показать сообщения:    

    Златовласка и три медведя. Друзья познаются в беде через торрент
    Скачать бесплатно Златовласка и три медведя. Друзья познаются в беде
    Златовласка и три медведя. Друзья познаются в беде скачать торрент
    Златовласка и три медведя. Друзья познаются в беде смотреть онлайн
    Cкачать фильм Златовласка и три медведя. Друзья познаются в беде бесплатно
    Златовласка и три медведя. Друзья познаются в беде скачать торрент в хорошем качестве
    Златовласка и три медведя. Друзья познаются в беде смотреть онлайн бесплатно в хорошем качестве


    Вы не можете начинать темы
    Вы не можете отвечать на сообщения
    Вы не можете редактировать свои сообщения
    Вы не можете удалять свои сообщения
    Вы не можете голосовать в опросах
    Вы не можете прикреплять файлы к сообщениям
    Вы можете скачивать файлы