Доктор Стрэндж

Лицензия

Добыча

Дубляж

Уэнсдэй

1 сезон

Тор

Дубляж

В эфире

Дубляж

Там, где раки поют

MVO

Властелин колец

1 сезон

Deluxe

pack

Рекомендуем

30

Пиратка

ВАЖНО

ВАЖНО

Ghostwire

Пиратка

jed

RePack

nioh2

RePack

RDR2

RePack

NEED FOR SPEED™ PAYBACK

RePack

скачать торрент

Кинопоиск HD

Острые козырьки 6 сезон

6 сезон

FAR CRY 6

RePack

скачать торрент

Лицензия

скачать торрент

MVO

1

1 сезон

скачать торрент

1 сезон

скачать торрент

Лицензия

  

Королевство полной луны / Moonrise Kingdom (Уэс Андерсон) [2012 г., Драма, комедия, BDRip (720p), Дубляж| лицензия + Оригинал]

Королевство полной луны через торрент pb.wtf

Размер: 5.78 GB | Добавлен: 10 лет назад | Торрент скачан:128 раз
Смотреть онлайн | Скачать   

05-08-2012 10:24 Королевство полной луны Скачать торрент  

Королевство полной луны / Moonrise Kingdom

Год выпуска: 2012
Страна: США, American Empirical Pictures, Indian Paintbrush, Scott Rudin Productions
Жанр: Драма, комедия
Продолжительность: 01:51:40
Перевод: Дубляж| лицензия + Оригинал

Режиссер: Уэс Андерсон

В ролях: Эдвард Нортон, Брюс Уиллис, Билл Мюррей, Тильда Суинтон, Харви Кейтель, Фрэнсис МакДорманд, Джейсон Шварцман, Кара Хэйуорд, Боб Бэлабан, Л. Фоли, Джаред Гилман, Шеймас Дэви-Фицпатрик, Нил Хафф, Чарли Килгор, Томми Нельсон, Гэбриел Раш, Тэннер Флуд, Чандлер Франц, Лукас Хеджес, Андреас Шейх

Описание: После таинственного исчезновения мальчишки и девчонки из лагеря бойскаутов принципиальный шериф ставит на уши весь город. Свое альтернативное расследование начинает тренер бойскаутов. Мамаша девушки бьется в истерике, а отец, кажется, что-то скрывает… Ведь у каждого в жизни бывает первая любовь.

Качество: BDRip (720p)
Формат: MKV
Видео кодек: Другой MPEG4
Аудио кодек: DTS
Видео: AVC, 1280x720 (16:9), 23.976 fps, 6 504 Kbps (0.294 bit/pixel)
Аудио#1: DTS, 48.0 KHz, 6 ch, 1 510 Kbps, CBR (Russian) (ДУБЛЯЖ)
Аудио#2: AC-3, 48.0 KHz, 6 ch, 448 Kbps, CBR (Russian)
Аудио#3: AC-3, 48.0 KHz, 2 ch, 192 Kbps, CBR (Russian)


General
Unique ID : 227576899227562823533128002872050868199 (0xAB35B76BB676112BAF9AC41538665FE7)
Complete name : D:\Korolevstvo.Polnoj.Luny.2012.x264.BDRip.720p.mkv
Format : Matroska
Format version : Version 2
File size : 5.78 GiB
Duration : 1h 33mn
Overall bit rate : 8 829 Kbps
Movie name : Moonrise.Kingdom.2012.BDRip.720p
Encoded date : UTC 2012-08-04 03:43:18
Writing application : mkvmerge v5.7.0 ('The Whirlwind') built on Jul 8 2012 20:08:51
Writing library : libebml v1.2.3 + libmatroska v1.3.0

Video
ID : 1
Format : AVC
Format/Info : Advanced Video Codec
Format profile : [email protected]
Format settings, CABAC : Yes
Format settings, ReFrames : 8 frames
Codec ID : V_MPEG4/ISO/AVC
Duration : 1h 33mn
Bit rate : 6 504 Kbps
Width : 1 280 pixels
Height : 720 pixels
Display aspect ratio : 16:9
Frame rate : 23.976 fps
Color space : YUV
Chroma subsampling : 4:2:0
Bit depth : 8 bits
Scan type : Progressive
Bits/(Pixel*Frame) : 0.294
Stream size : 4.25 GiB (74%)
Title : Moonrise Kingdom (2012)
Writing library : x264 core 125 r2200 999b753
Encoding settings : cabac=1 / ref=8 / deblock=1:-3:-3 / analyse=0x3:0x113 / me=umh / subme=10 / psy=1 / psy_rd=1.00:0.00 / mixed_ref=1 / me_range=32 / chroma_me=1 / trellis=2 / 8x8dct=1 / cqm=0 / deadzone=21,11 / fast_pskip=0 / chroma_qp_offset=-2 / threads=18 / lookahead_threads=3 / sliced_threads=0 / nr=0 / decimate=0 / interlaced=0 / bluray_compat=0 / constrained_intra=0 / bframes=8 / b_pyramid=2 / b_adapt=2 / b_bias=0 / direct=3 / weightb=1 / open_gop=0 / weightp=2 / keyint=240 / keyint_min=22 / scenecut=40 / intra_refresh=0 / rc_lookahead=60 / rc=crf / mbtree=0 / crf=18.0 / qcomp=0.60 / qpmin=10 / qpmax=51 / qpstep=4 / vbv_maxrate=50000 / vbv_bufsize=62500 / crf_max=0.0 / nal_hrd=none / ip_ratio=1.40 / pb_ratio=1.30 / aq=1:0.80
Language : English
Default : Yes
Forced : No
Matrix coefficients : BT.709-5, BT.1361, IEC 61966-2-4 709, SMPTE RP177

Audio #1
ID : 2
Format : DTS
Format/Info : Digital Theater Systems
Codec ID : A_DTS
Duration : 1h 33mn
Bit rate mode : Constant
Bit rate : 1 510 Kbps
Channel(s) : 6 channels
Channel positions : Front: L C R, Side: L R, LFE
Sampling rate : 48.0 KHz
Bit depth : 24 bits
Compression mode : Lossy
Stream size : 1 011 MiB (17%)
Title : Дубляж [DTS 6ch]
Language : Russian
Default : Yes
Forced : No

Audio #2
ID : 3
Format : AC-3
Format/Info : Audio Coding 3
Mode extension : CM (complete main)
Format settings, Endianness : Big
Codec ID : A_AC3
Duration : 1h 33mn
Bit rate mode : Constant
Bit rate : 448 Kbps
Channel(s) : 6 channels
Channel positions : Front: L C R, Side: L R, LFE
Sampling rate : 48.0 KHz
Bit depth : 16 bits
Compression mode : Lossy
Stream size : 300 MiB (5%)
Title : Дубляж [AC3 6ch]
Language : Russian
Default : No
Forced : No

Audio #3
ID : 4
Format : AC-3
Format/Info : Audio Coding 3
Mode extension : CM (complete main)
Format settings, Endianness : Big
Codec ID : A_AC3
Duration : 1h 33mn
Bit rate mode : Constant
Bit rate : 192 Kbps
Channel(s) : 2 channels
Channel positions : Front: L R
Sampling rate : 48.0 KHz
Bit depth : 16 bits
Compression mode : Lossy
Stream size : 129 MiB (2%)
Title : Дубляж [AC3 2ch]
Language : Russian
Default : No
Forced : No

Menu
00:00:00.000 : :00:00:00.000
00:08:45.650 : :00:08:45.650
00:16:37.913 : :00:16:37.913
00:24:02.983 : :00:24:02.983
00:30:11.851 : :00:30:11.851
00:40:03.234 : :00:40:03.234
00:48:29.740 : :00:48:29.740
00:56:39.938 : :00:56:39.938
01:05:51.781 : :01:05:51.781
01:11:58.147 : :01:11:58.147
01:17:28.727 : :01:17:28.727
01:27:01.841 : :01:27:01.841




Скачать Королевство полной луны через торрент http://imgtag.ru/images/1442721103a73e92f075e625f.png Скачать, смотреть онлайн Королевство полной луны бесплантно в хорошем качестве Описание: После таинственного исчезновения мальчишки и девчонки из лагеря бойскаутов принципиальный шериф ставит на уши весь город. Свое ... 10 10 3
Info! Золотая раздача, скачанное не засчитывается.
Торрент: Зарегистрирован [2012-08-05 10:24] · скачан: 128 раз
Статус: √ проверено
Размер: 5.78 GB
Как cкачать? Как скачать Королевство полной луны через торрент | UTorrent

28-11-2019 20:33  


Отключить вcю реклaмy на сайте, в т.ч. и в плеере онлайн просмотра!

    Дорогой пользователь! Огромная просьба, поблагодарите релизера, оцените раздачу и оставьте свои комментарий, если Вы скачали Королевство полной луны через торрент бесплатно!!
    Комментировать посты могут только пользователи прошедшие не сложную регистрацию
    Показать сообщения:    


    Королевство полной луны через торрент
    Скачать бесплатно Королевство полной луны
    Королевство полной луны скачать торрент
    Королевство полной луны смотреть онлайн
    Cкачать фильм Королевство полной луны бесплатно
    Королевство полной луны скачать торрент в хорошем качестве
    Королевство полной луны смотреть онлайн бесплатно в хорошем качестве
    Вы не можете начинать темы
    Вы не можете отвечать на сообщения
    Вы не можете редактировать свои сообщения
    Вы не можете удалять свои сообщения
    Вы не можете голосовать в опросах
    Вы не можете прикреплять файлы к сообщениям
    Вы можете скачивать файлы
    Королевство полной луны / Moonrise Kingdom [2012 г., Драма, комедия, BDRip , Дубляж| лицензия + Оригинал] смотреть онлайн, скачать торрент picoco.icu