1 сезон

1 сезон

iTunes

1

КиноПоиск HD

Кинопоиск HD

iTunes

13

1 сезон

RePack

30

Ultimate

ВАЖНО

ИГРА 18+

pack

RePack

MK11
pack

Легкие деньги

RePack

jed

RePack

fifa19

RePack

RDR2

RePack

NEED FOR SPEED™ PAYBACK

4 сезон

9 сезон

Бесстыжие 9 сезон

Все сериалы

все сериалы на PB.wtf

RePack

FAR CRY 5
  
Magnet ссылка

Недетское кино / Not Another Teen Movie (Джоел Галлен / Joel Gallen) [2001 г., комедия, DVDRip-AVC] pb.wtf

Недетское кино через торрент pb.wtf

Размер: 2.93 GB | Добавлен: 8 лет 8 мес. назад | Торрент скачан:87 раз
Скачать  

05-08-2012 12:06 Недетское кино Скачать торрент  

Недетское кино / Not Another Teen Movie
«If You Liked Scary Movie, who gives a shit»

Год выпуска: 2001

Страна: США

Жанр: комедия

Продолжительность: 01:25:22

Рейтинг MMPA:
Перевод #1: Профессиональный (многоголосый закадровый) [ВидеоСервис DVD9]


Перевод #2: Профессиональный (многоголосый закадровый) [ВидеоСервис DVD5]

Перевод #3: Профессиональный (многоголосый закадровый) [ВидеоСервис Video CD]

Перевод #4: Профессиональный (многоголосый закадровый) [Неопознанный]

Перевод #5: Профессиональный (многоголосый закадровый) [Неопознанный 2]

Перевод #6: Авторский (одноголосый закадровый) [Гранкин]

Перевод #7: Профессиональный (многоголосый закадровый) [Украинский]

Перевод #8: Профессиональный (одноголосый закадровый) [Литовский]

Cубтитры: английские, русские

Оригинальная аудиодорожка: английский
Режиссер: Джоел Галлен / Joel Gallen
Продюссер: Фил Боман, Майк Бендер, Бадди Джонсон, ...
Сценарий: Майк Бендер, Адам Джей Эпштейн, Эндрю Джейкобсон, ...

В ролях:Кайлер Ли, Крис Эванс, Джейми Прессли, Эрик Кристиан Олсен, Миа Киршнер, Дион Ричмонд, Эрик Джангманн, Рон Лестер, Коди МакМейнс, Сэм Хантингтон

Бюджет: $15 000 000
Премьера в мире: 7 декабря 2001
Качество: DVDRip-AVC
Формат: MKV
Видео кодек: H.26x
Аудио кодек: AC3
Видео: 720x384, 25 fps, 1900 kbps
Аудио#1: AC3 Dolby Digital, 48 kHz, 448 kbps, 3/2 (L,C,R,l,r) + LFE ch [MVO - ВидеоСервис DVD9]
Аудио#2: AC3 Dolby Digital, 48 kHz, 448 kbps, 3/2 (L,C,R,l,r) + LFE ch [MVO - ВидеоСервис DVD5]
Аудио#3: AC3 Dolby Digital, 44.1 kHz, 224 kbps, 2/0 (L,R) ch [MVO - ВидеоСервис Video CD]

Отдельными файлами::
Аудио #4: AC3 Dolby Digital, 44.1 kHz, 192 kbps, 2/0 (L,R) ch [MVO - Неопознанный]
Аудио #5: AC3 Dolby Digital, 44.1 kHz, 192 kbps, 2/0 (L,R) ch [MVO - Неопознанный 2]
Аудио #6: AC3 Dolby Digital, 44.1 kHz, 224 kbps, 2/0 (L,R) ch [AVO - Гранкин]
Аудио #7: AC3 Dolby Digital, 48 kHz, 384 kbps, 3/2 (L,C,R,l,r) + LFE ch [MVO - Украинский]
Аудио #8: AC3 Dolby Digital, 48 kHz, 448 kbps, 3/2 (L,C,R,l,r) + LFE ch [VO - Литовский]
Аудио #9: AC3 Dolby Digital, 48 kHz, 448 kbps, 3/2 (L,C,R,l,r) + LFE ch [Original]
Описание:Популярный в школе парень и звезда футбольной команды Джейк Уилер, ослепленный собственной славой и успехом, заключает пари со своими друзьями.
Уилер делает ставку на то, что может сделать из любой девушки, посещающей их школу королеву школьного бала. Друзья сразу же выбирают предмет своей шутки — внешне малопривлекательную начинающую художницу Джэни Бриггс, чей комбинезон всегда в краске, которая носит очки и собирает свои волосы в «хвост». Джэни является изгоем в своем классе, однако пройдя через ряд событий, Уиллер понимает, что он любит этого «гадкого утенка»
General
Unique ID : 248157184933921984964803193959548868385 (0xBAB155D8B4848EDDAE4DFF9A61365721)
Complete name : Not.Another.Teen.Movie.2001.DVDRip-AVC.mkv
Format : Matroska
File size : 1.80 GiB
Duration : 1h 25mn
Overall bit rate : 3 027 Kbps
Encoded date : UTC 2011-09-08 12:46:26
Writing application : mkvmerge v4.9.1 ('Ich will') сборка от Jul 11 2011 23:53:15
Writing library : libebml v1.2.1 + libmatroska v1.1.1

Video
ID : 1
Format : AVC
Format/Info : Advanced Video Codec
Format profile : High@L3.1
Format settings, CABAC : Yes
Format settings, ReFrames : 12 frames
Codec ID : V_MPEG4/ISO/AVC
Duration : 1h 25mn
Bit rate : 1 900 Kbps
Width : 720 pixels
Height : 384 pixels
Display aspect ratio : 1.875
Frame rate : 25.000 fps
Color space : YUV
Chroma subsampling : 4:2:0
Bit depth : 8 bits
Scan type : Progressive
Bits/(Pixel*Frame) : 0.275
Stream size : 1.10 GiB (61%)
Writing library : x264 core 68 r1183M f21daff
Encoding settings : cabac=1 / ref=12 / deblock=1:-1:-1 / analyse=0x3:0x133 / me=umh / subme=8 / psy_rd=1.0:0.0 / mixed_ref=1 / me_range=16 / chroma_me=1 / trellis=2 / 8x8dct=1 / cqm=0 / deadzone=21,11 / chroma_qp_offset=-2 / threads=2 / nr=0 / decimate=0 / mbaff=0 / bframes=6 / b_pyramid=1 / b_adapt=2 / b_bias=0 / direct=1 / wpredb=1 / keyint=250 / keyint_min=25 / scenecut=40 / rc=2pass / bitrate=1900 / ratetol=2.0 / qcomp=0.80 / qpmin=10 / qpmax=51 / qpstep=4 / cplxblur=20.0 / qblur=0.5 / ip_ratio=1.40 / pb_ratio=1.30 / aq=1:1.00
Language : English

Audio #1
ID : 2
Format : AC-3
Format/Info : Audio Coding 3
Mode extension : CM (complete main)
Codec ID : A_AC3
Duration : 1h 25mn
Bit rate mode : Constant
Bit rate : 448 Kbps
Channel(s) : 6 channels
Channel positions : Front: L C R, Side: L R, LFE
Sampling rate : 48.0 KHz
Bit depth : 16 bits
Compression mode : Lossy
Stream size : 274 MiB (15%)
Title : ВидеоСервис DVD9 [MVO]
Language : Russian

Audio #2
ID : 3
Format : AC-3
Format/Info : Audio Coding 3
Mode extension : CM (complete main)
Codec ID : A_AC3
Duration : 1h 25mn
Bit rate mode : Constant
Bit rate : 448 Kbps
Channel(s) : 6 channels
Channel positions : Front: L C R, Side: L R, LFE
Sampling rate : 48.0 KHz
Bit depth : 16 bits
Compression mode : Lossy
Stream size : 274 MiB (15%)
Title : ВидеоСервис DVD5 [MVO]
Language : Russian

Audio #3
ID : 4
Format : AC-3
Format/Info : Audio Coding 3
Mode extension : CM (complete main)
Codec ID : A_AC3
Duration : 1h 25mn
Bit rate mode : Constant
Bit rate : 224 Kbps
Channel(s) : 2 channels
Channel positions : Front: L R
Sampling rate : 44.1 KHz
Bit depth : 16 bits
Compression mode : Lossy
Stream size : 137 MiB (7%)
Title : ВидеоСервис Video CD [MVO]
Language : Russian

Text #1
ID : 5
Format : VobSub
Muxing mode : zlib
Codec ID : S_VOBSUB
Codec ID/Info : The same subtitle format used on DVDs
Language : English

Text #2
ID : 6
Format : VobSub
Muxing mode : zlib
Codec ID : S_VOBSUB
Codec ID/Info : The same subtitle format used on DVDs
Language : Russian

Menu
00:00:00.054 : en:00:00:00.054 / en:00:00:00.054












pb.wtf



Скачать Недетское кино через торрент http://i30.fastpic.ru/big/2011/0908/8e/b1a95e99bed64eb6762846eac35f218e.png Скачать фильм Недетское кино через торрент бесплантно в хорошем качестве Описание:Популярный в школе парень и звезда футбольной команды Джейк Уилер, ослепленный собственной славой и успехом, заключает пари со ... 10 10 5
Info! Золотая раздача, скачанное не засчитывается.
Торрент: Зарегистрирован [2012-08-05 12:06] · скачан: 87 раз
Статус: √ проверено
Размер: 2.93 GB
Как cкачать? Как скачать Недетское кино через торрент | UTorrent

28-11-2019 20:33  

Отключить всю рекламу на сайте

05-08-2012 16:56 Недетское кино Скачать торрент  

Отличный фильм.pb.wtf



05-08-2012 17:56 Недетское кино Скачать торрент  

конечно, пиндосская комедия без говна-то и не комедия...pb.wtf



05-08-2012 18:03 Недетское кино Скачать торрент  

sergunka
ну да пендосская комедия, зато смотрят многие и есть ржачные моменты.... а вот ВЕЛИКИЕ русские комедии это .... хм... чет неприпомню.... ах да самый лучший фильм и подобные, да.... тут конечно вершина комической индустрии!!pb.wtf



05-08-2012 18:58 Недетское кино Скачать торрент  

Splen
ну, если брать те россиянские "комедии", которые пользуются спросом - уж лучше пиндосские, в самом деле.
просто русские я вообще не рассматриваю. есть ещё французские, английские, ирландские - те, которые действительно смешныеpb.wtf



    Дорогой пользователь! Огромная просьба, поблагодарите релизера, оцените раздачу и оставьте свои комментарий, если Вы скачали Недетское кино через торрент бесплатно! Внесите свою лепту в развитие PiratBit!
    Комментировать посты могут только пользователи прошедшие не сложную регистрацию
    Показать сообщения:    

    Недетское кино через торрент
    Скачать бесплатно Недетское кино
    Недетское кино скачать торрент
    Недетское кино смотреть онлайн
    Cкачать фильм Недетское кино бесплатно
    Недетское кино скачать торрент в хорошем качестве
    Недетское кино смотреть онлайн бесплатно в хорошем качестве


    Вы не можете начинать темы
    Вы не можете отвечать на сообщения
    Вы не можете редактировать свои сообщения
    Вы не можете удалять свои сообщения
    Вы не можете голосовать в опросах
    Вы не можете прикреплять файлы к сообщениям
    Вы можете скачивать файлы