Ссылка на приватное зеркало нашего сайта всего за 1$. Внимание количество ограничено!!!

2 сезон

iTunes

1 сезон

1

iTunes

iTunes

iTunes

1 сезон

RePack

30

ИГРА 18+

pack

ВАЖНО

!!Акция!!

Alien_RageХит недели

RePack

MK11
pack

Забери бонус

RePack

jed

!!Акция!!

Alien_Rage

RePack

fifa19

RePack

Assassins Creed: Odyssey

RePack

NEED FOR SPEED™ PAYBACK

4 сезон

9 сезон

Бесстыжие 9 сезон

Все сериалы

все сериалы на PB.wtf

RePack

FAR CRY 5
  

Летние приключения отчаянных / Серии 01-09 из 09 (Михаил Славский, Владимир Веселов) [2010 г., Детский, приключения, SATRip] pb.wtf

Летние приключения отчаянных через торрент pb.wtf

Размер: 2.65 GB | Добавлен: 8 лет 2 мес. назад | Торрент скачан:35 раз
Скачать  

07-08-2012 10:54 Летние приключения отчаянных Скачать торрент  

Летние приключения отчаянных

Год выпуска: 2010
Страна: Россия
Жанр: Детский, приключения
Продолжительность: 9 х ~ 00:26:25
Перевод: Не требуется

Режиссер: Михаил Славский, Владимир Веселов

IMDB


В ролях: Лера Демкович, Максим Мерзоян, Василина Кириллова, Яша Лесин, Даня Рагин, Женя Ульянов, Лада Писаренко, Наташа Анфимова, Даша Хегай, Лев Шварцман, Степан Пошибайлов, Татьяна Григорьева, Егор Кутенков, Михаил Славский, Софья Горелик

Описание: Кто же такие эти отчаянные? Самые обыкновенные ребята, отдыхающие в детском оздоровительном лагере, где всегда необыкновенно шумно и весело. Присоединяйтесь к незабываемым летним приключениям маленьких друзей! Наступило лето, а значит - пора отправляться в детский лагерь, где соберутся самые веселые ребята, чтобы классно отдохнуть и провести время вместе. Эти девчонки и мальчишки — славные выдумщики и неугомонные затейники. Лера, Степан, Максим, Лада, Даша, Лев, Женя, Наташа и многие другие. В лагере им предстоит познакомиться с симпатичными (и даже немного странными) персонажами — пионервожатыми Леночкой и Романом, строгим начальником, физруком, завхозом, а также удивительной Тётей Бзик... Эта история — о беззаботном отдыхе, о лете, о детском веселье. В ней переплетаются реальные и мистические события, смех и слезы, погони и удивительные открытия... В общем, все как в жизни, только еще интереснее!

Качество: SATRip
Формат: AVI
Видео кодек: XviD
Аудио кодек: AC3
Видео: 688x416 (1.65:1), 25 fps, XviD build 64 ~1577 kbps avg, 0.22 bit/pixel
Аудио#1: Русский: 48 kHz, MPEG Layer 3, 2 ch, ~128.00 kbps avg
Общее
Полное имя : F:\Закачки\Letnie.Prikljuchenija.Otchajannyh.p.01-09.of.09.2010.SATRip\Letnie.Prikljuchenija.Otchajannyh.p.01.of.09.2010.SATRip.avi
Формат : AVI
Формат/Информация : Audio Video Interleave
Размер файла : 301 Мбайт
Продолжительность : 24 м.
Общий поток : 1716 Кбит/сек
Программа кодирования : VirtualDubMod 1.5.10.3 | www.virtualdub-fr.org || (build 2550/release)
Библиотека кодирования : VirtualDubMod build 2550/release

Видео
Идентификатор : 0
Формат : MPEG-4 Visual
Профиль формата : Advanced Simple@L5
Параметр BVOP формата : 1
Параметр QPel формата : Нет
Параметр GMC формата : Без точки перехода
Параметр матрицы формата : Default (MPEG)
Идентификатор кодека : XVID
Идентификатор кодека/Подсказка : XviD
Продолжительность : 24 м.
Битрейт : 1578 Кбит/сек
Ширина : 688 пикселей
Высота : 416 пикселей
Соотношение сторон : 1,654
Частота кадров : 25,000 кадров/сек
Цветовое пространство : YUV
Субдискретизация насыщенности : 4:2:0
Битовая глубина : 8 бит
Тип развёртки : Прогрессивная
Метод сжатия : С потерями
Бит/(Пиксели*Кадры) : 0.221
Размер потока : 276 Мбайт (92%)
Библиотека кодирования : XviD 64

Аудио
Идентификатор : 1
Формат : MPEG Audio
Версия формата : Version 1
Профиль формата : Layer 3
Идентификатор кодека : 55
Идентификатор кодека/Подсказка : MP3
Продолжительность : 24 м.
Вид битрейта : Постоянный
Битрейт : 128 Кбит/сек
Каналы : 2 канала
Частота : 48,0 КГц
Метод сжатия : С потерями
Размер потока : 22,4 Мбайт (7%)
Выравнивание : Соединение по промежуткам
Продолжительность промежутка : 40 мс. (1,00 видеокадр)
Время предзагрузки промежутка : 504 мс.
Библиотека кодирования : LAME3.98r
Настройки программы : -m s -V 4 -q 2 -lowpass 17 -b 128

pb.wtf



Скачать Летние приключения отчаянных через торрент http://pic.kartinco.top/images/1/svjd84pvzq.jpg Скачать фильм Летние приключения отчаянных через торрент бесплантно в хорошем качестве Описание: Кто же такие эти отчаянные? Самые обыкновенные ребята, отдыхающие в детском оздоровительном лагере, где всегда необыкновенно ... 10 10 1
Info! Золотая раздача, скачанное не засчитывается.
Торрент: Зарегистрирован [2012-08-07 10:54] · скачан: 35 раз
Статус: √ проверено
Размер: 2.65 GB
Как cкачать? Как скачать Летние приключения отчаянных через торрент | qTorrent



Последний раз редактировалось: DJERG (2012-08-07 14:32), всего редактировалось 1 раз

28-11-2019 20:33  

Отключить всю рекламу на сайте

07-08-2012 13:37 Летние приключения отчаянных Скачать торрент  

DJERG
Запомни, что бы не было постов и замечаний. Когда оформляешь раздачу в разделе сериалы, обязательно в самом заголовке указываешь сезон и количество серий. В правилах оформления это есть. Все вопросы сразу отпадут.
pb.wtf



    Дорогой пользователь! Огромная просьба, поблагодарите релизера, оцените раздачу и оставьте свои комментарий, если Вы скачали Летние приключения отчаянных через торрент бесплатно! Внесите свою лепту в развитие PiratBit!
    Комментировать посты могут только пользователи прошедшие не сложную регистрацию
    Показать сообщения:    

    Летние приключения отчаянных через торрент
    Скачать бесплатно Летние приключения отчаянных
    Летние приключения отчаянных скачать торрент
    Летние приключения отчаянных смотреть онлайн
    Cкачать фильм Летние приключения отчаянных бесплатно
    Летние приключения отчаянных скачать торрент в хорошем качестве
    Летние приключения отчаянных смотреть онлайн бесплатно в хорошем качестве


    Вы не можете начинать темы
    Вы не можете отвечать на сообщения
    Вы не можете редактировать свои сообщения
    Вы не можете удалять свои сообщения
    Вы не можете голосовать в опросах
    Вы не можете прикреплять файлы к сообщениям
    Вы можете скачивать файлы