Ссылка на приватное зеркало нашего сайта всего за 1$. Внимание количество ограничено!!!

2 сезон

iTunes

1 сезон

1

iTunes

iTunes

iTunes

1 сезон

RePack

30

ИГРА 18+

pack

ВАЖНО

!!Акция!!

Alien_RageХит недели

RePack

MK11
pack

Забери бонус

RePack

jed

!!Акция!!

Alien_Rage

RePack

fifa19

RePack

Assassins Creed: Odyssey

RePack

NEED FOR SPEED™ PAYBACK

4 сезон

9 сезон

Бесстыжие 9 сезон

Все сериалы

все сериалы на PB.wtf

RePack

FAR CRY 5
  

Американский пирог: Все в сборе / American Reunion (Джон Харвитц, Хейден Шлоссберг) [2012 г., комедия, BDRip 720p, DUB[ лицензия ] + Original(Eng)] pb.wtf

Американский пирог: Все в сборе через торрент pb.wtf

Размер: 5.52 GB | Добавлен: 8 лет 2 мес. назад | Торрент скачан:444 раза
Скачать  

08-08-2012 12:25 Американский пирог: Все в сборе Скачать торрент  

Американский пирог: Все в сборе / American Reunion

[img]http:// СПАМГод выпуска: 2012
Страна: США
Жанр: Комедия
Продолжительность: 01:52:52
Перевод: Профессиональный (Дублированный [лицензия])
Оригинальная аудиодорожка: Английская
Cубтитры: нет

Режиссер: Джон Харвитц, Хейден Шлоссберг
В ролях: Джейсон Биггз, Элисон Хэннигэн, Крис Клейн, Томас Иэн Николас, Тара Рид, Шонн Уильям Скотт, Мена Сувари, Эдди Кэй Томас, Джон Чо, Дженнифер Кулидж Описание: Герои «Американского пирога» встречаются вновь спустя 10 лет. Они докажут, что даже время и расстояние не в силах разрушить их дружбу. Летом 1999-го четверо мичиганских парней решили расстаться с невинностью. Прошли годы, и теперь друзья вернулись домой уже повзрослевшими, чтобы вспомнить прошлое и оторваться на полную катушку.


Качество: BDRip (720p)
Формат: MKV
Видео кодек: H.264
Аудио кодек: AC3, DTS
Видео: x264; 1280x688,(1,860), 5052 Кбит/сек, 23,976 кадр/сек, 0.239 bit/pixel
Аудио 1: AC3, 448 kb/s (6 ch), 48 kHz - Дублированный [лицензия]
Аудио 2: DTS, 1510 kb/s (6 ch), 48 kHz - Original(Eng)
Общее
Уникальный идентификатор : 188321807468521819642898150175248255040 (0x8DAD75F8331938879FD77112F2488840)
Полное имя : F:\ФИЛЬМЫ ТОРРЕНТА\Amerikanski.pirog.vse.v.sbore.2012.D.BDRip.720p.mkv
Формат : Matroska
Версия формата : Version 2
Размер файла : 5,52 Гбайт
Продолжительность : 1 ч. 52 м.
Общий поток : 7006 Кбит/сек
Дата кодирования : UTC 2012-08-07 20:22:18
Программа кодирования : mkvmerge v4.9.1 ('Ich will') сборка от Jul 11 2011 23:53:15
Библиотека кодирования : libebml v1.2.1 libmatroska v1.1.1

Видео
Идентификатор : 1
Формат : AVC
Формат/Информация : Advanced Video Codec
Профиль формата : High@L3.1
Параметр CABAC формата : Да
Параметр ReFrames формата : 4 кадра
Режим смешивания : Header stripping
Идентификатор кодека : V_MPEG4/ISO/AVC
Продолжительность : 1 ч. 52 м.
Битрейт : 5052 Кбит/сек
Ширина : 1280 пикселей
Высота : 688 пикселей
Соотношение сторон : 1,860
Частота кадров : 23,976 кадра/сек
Цветовое пространство : YUV
Субдискретизация насыщенности : 4:2:0
Битовая глубина : 8 бит
Тип развёртки : Прогрессивная
Бит/(Пиксели*Кадры) : 0.239
Размер потока : 3,87 Гбайт (70%)
Библиотека кодирования : x264 core 119 r2106 07efeb4
Настройки программы : cabac=1 / ref=3 / deblock=1:0:0 / analyse=0x3:0x113 / me=hex / subme=7 / psy=1 / psy_rd=1.00:0.10 / mixed_ref=1 / me_range=16 / chroma_me=1 / trellis=1 / 8x8dct=1 / cqm=0 / deadzone=21,11 / fast_pskip=1 / chroma_qp_offset=-3 / threads=12 / sliced_threads=0 / nr=0 / decimate=1 / interlaced=0 / bluray_compat=0 / constrained_intra=0 / bframes=4 / b_pyramid=2 / b_adapt=1 / b_bias=0 / direct=1 / weightb=1 / open_gop=0 / weightp=2 / keyint=250 / keyint_min=23 / scenecut=40 / intra_refresh=0 / rc_lookahead=40 / rc=2pass / mbtree=1 / bitrate=5052 / ratetol=1.0 / qcomp=0.60 / qpmin=0 / qpmax=69 / qpstep=4 / cplxblur=20.0 / qblur=0.5 / ip_ratio=1.40 / aq=1:1.00
Язык : English

Аудио #1
Идентификатор : 2
Формат : AC-3
Формат/Информация : Audio Coding 3
Расширение режима : CM (complete main)
Режим смешивания : Header stripping
Идентификатор кодека : A_AC3
Продолжительность : 1 ч. 52 м.
Вид битрейта : Постоянный
Битрейт : 448 Кбит/сек
Каналы : 6 каналов
Расположение каналов : Front: L C R, Side: L R, LFE
Частота : 48,0 КГц
Битовая глубина : 16 бит
Метод сжатия : С потерями
Размер потока : 362 Мбайт (6%)

Аудио #2
Идентификатор : 3
Формат : DTS
Формат/Информация : Digital Theater Systems
Режим смешивания : Header stripping
Идентификатор кодека : A_DTS
Продолжительность : 1 ч. 52 м.
Вид битрейта : Постоянный
Битрейт : 1510 Кбит/сек
Каналы : 6 каналов
Расположение каналов : Front: L C R, Side: L R, LFE
Частота : 48,0 КГц
Битовая глубина : 24 бит
Метод сжатия : С потерями
Размер потока : 1,19 Гбайт (22%)
Заголовок : English DTS
Язык : English
pb.wtf



Скачать Американский пирог: Все в сборе через торрент http://i035.radikal.ru/0803/ff/222ebcf443b5.gif Скачать фильм Американский пирог: Все в сборе через торрент бесплантно в хорошем качестве Описание: Герои «Американского пирога» встречаются вновь спустя 10 лет. Они докажут, что даже время и расстояние не в силах разрушить их ... 10 10 6
Info! Золотая раздача, скачанное не засчитывается.
Торрент: Зарегистрирован [2012-08-08 12:25] · скачан: 444 раз
Статус: √ проверено
Размер: 5.52 GB
Как cкачать? Как скачать Американский пирог: Все в сборе через торрент | qTorrent

% Раздел Тема Автор DL S | L
Фильмы 2012 [ 1.41 GB ] Американский пирог: Все в сборе / American Reunion [2012 HDRip-AVC] [ лицензия ] V@DILA Скачать
1 | 0
Фильмы [HD 720p, 1080p] (Хороший звук DUB, MVO) [ 10.22 GB ] Американский пирог: Все в сборе / American Reunion [2012 BDRip 720p DUB лицензия] Ke$h@ Скачать
1 | 0
Фильмы 2012 [ 746 MB ] Американский пирог: Все в сборе / American Reunion [2012 DVDRip DUB лицензия] shuller Скачать
1 | 0
Фильмы 2012 [ 1.37 GB ] Американский пирог: Все в сборе / American Reunion [2012 BDRip DUB ] MIXX_ON Скачать
1 | 0
Фильмы (DVD фильмы) [ 7.31 GB ] Американский пирог: Все в сборе / American Reunion [2012 DVD9 DUB ] shuller Скачать
1 | 0
Фильмы [HD 720p, 1080p] (Хороший звук DUB, MVO) [ 11.55 GB ] Американский пирог: Все в сборе / American Reunion [2012 BDRip DUB + Оригинал] AlexKa Скачать
1 | 0

28-11-2019 20:33  

Отключить всю рекламу на сайте

08-08-2012 12:35 Американский пирог: Все в сборе Скачать торрент  

-=Cherry=-
Спосибо!!! pb.wtf



10-08-2012 13:32 Американский пирог: Все в сборе Скачать торрент  

-=Cherry=-
А семпл можно? :this:pb.wtf



    Дорогой пользователь! Огромная просьба, поблагодарите релизера, оцените раздачу и оставьте свои комментарий, если Вы скачали Американский пирог: Все в сборе через торрент бесплатно! Внесите свою лепту в развитие PiratBit!
    Комментировать посты могут только пользователи прошедшие не сложную регистрацию
    Показать сообщения:    

    Американский пирог: Все в сборе через торрент
    Скачать бесплатно Американский пирог: Все в сборе
    Американский пирог: Все в сборе скачать торрент
    Американский пирог: Все в сборе смотреть онлайн
    Cкачать фильм Американский пирог: Все в сборе бесплатно
    Американский пирог: Все в сборе скачать торрент в хорошем качестве
    Американский пирог: Все в сборе смотреть онлайн бесплатно в хорошем качестве


    Вы не можете начинать темы
    Вы не можете отвечать на сообщения
    Вы не можете редактировать свои сообщения
    Вы не можете удалять свои сообщения
    Вы не можете голосовать в опросах
    Вы не можете прикреплять файлы к сообщениям
    Вы можете скачивать файлы