Ссылка на приватное зеркало нашего сайта всего за 1$. Внимание количество ограничено!!!

2 сезон

iTunes

1 сезон

1

iTunes

iTunes

iTunes

1 сезон

RePack

30

ИГРА 18+

pack

ВАЖНО

!!Акция!!

Alien_RageХит недели

RePack

MK11
pack

Забери бонус

RePack

jed

!!Акция!!

Alien_Rage

RePack

fifa19

RePack

Assassins Creed: Odyssey

RePack

NEED FOR SPEED™ PAYBACK

4 сезон

9 сезон

Бесстыжие 9 сезон

Все сериалы

все сериалы на PB.wtf

RePack

FAR CRY 5
  

Американский пирог / American Pie (Пол Вайц, Крис Вайц) [1999 г., комедия, мелодрама, BDRip (1080p), МVО (3 Голоса разных) DUB + Оригинал] pb.wtf

Американский пирог через торрент pb.wtf

Размер: 11.6 GB | Добавлен: 8 лет 2 мес. назад | Торрент скачан:0 раз
Скачать  

08-08-2012 13:15 Американский пирог Скачать торрент  

Американский пирог / American Pie
Год выпуска: 1999
Страна: США | Newmarket Capital Group LLC, Summit Entertainment, Universal Pictures, Zide-Perry Productions
Жанр: комедия, мелодрама
Продолжительность: 01:35:37
Перевод: Дубляж + Оригинал+МVО (3 Голоса разных)

Режиссер: Пол Вайц, Крис Вайц

В ролях: Джейсон Биггз, Шэннон Элизабет, Элисон Хэннигэн, Крис Клейн, Наташа Лайонн, Томас Ян Николас, Шонн Уильям Скотт, Мена Сувари, Эдди Кэй Томас, Юджин Ливай, Дженнифер Кулидж, Клайд Кусатсу, Лоуренс Прессмэн, Тара Рейд

Описание: На вечеринке четверо старшеклассников, Джим, Кевин, Финч и Оз, выясняют, что никто из них еще не имел сексуального опыта с девушками. Приятели считают, что с коллективной девственностью надо обязательно расстаться до того, как они переступят порог колледжа. На носу школьный выпускной бал, и у друзей осталось совсем мало времени на то, чтобы выполнить задуманное.

Качество: BDRip (1080p)
Формат: MKV
Видео кодек: AVC
Аудио кодек: AC3
Видео: Русский (Дублированный), AC3, 6ch (L, C, R, Ls, Rs +LFE), 384 кбит/с |МОСФИЛЬМ-мастер|
Аудио#1: Русский (Профессиональный (многоголосый)), AC3, 6ch (L, C, R, Ls, Rs +LFE), 384 кбит/с |Премьер Мультимедия|
Аудио#2: Русский (Профессиональный (один голос)), DTS, 6ch (L, C, R, Ls, Rs +LFE), 1536 кбит/с |Юрий Живов|
Аудио#3: Русский (Профессиональный (один голос)), AC3, 6ch (L, C, R, Ls, Rs +LFE), 448 кбит/с |Михаил Чадов|
Аудио#4: Английский (Оригинал), DTS, 6ch (L, C, R, Ls, Rs +LFE), 1536 кбит/с
Аудио #5: Русский (Профессиональный (один голос)), AC3, 6ch (L, C, R, Ls, Rs +LFE), 448 кбит/с |Денис Строев|
Субтитры: Русские, Английские, Английские (для глухих и слабослышащих), Китайские


General
Unique ID : 205768367288379017430094996298434392482 (0x9ACD8BC7C265BCE3B223237C5CC0B1A2)
Complete name : E:\American.Pie.[Unrated].1999.1080p.BDRip.x264.dts.ac3.eng.rus.mkv
Format : Matroska
Format version : Version 2
File size : 11.6 GiB
Duration : 1h 35mn
Overall bit rate : 17.4 Mbps
Movie name : American Pie (1999)
Encoded date : UTC 2012-06-28 18:15:17
Writing application : mkvmerge v5.6.0 ('Kenya Kane') built on May 27 2012 16:44:04
Writing library : libebml v1.2.3 + libmatroska v1.3.0

Video
ID : 1
Format : AVC
Format/Info : Advanced Video Codec
Format profile : High@L4.1
Format settings, CABAC : Yes
Format settings, ReFrames : 4 frames
Muxing mode : Header stripping
Codec ID : V_MPEG4/ISO/AVC
Duration : 1h 35mn
Bit rate : 12.7 Mbps
Width : 1 920 pixels
Height : 1 040 pixels
Display aspect ratio : 1.85:1
Frame rate : 23.976 fps
Color space : YUV
Chroma subsampling : 4:2:0
Bit depth : 8 bits
Scan type : Progressive
Bits/(Pixel*Frame) : 0.266
Stream size : 8.24 GiB (71%)
Writing library : x264 core 120 r2146 bcd41db
Encoding settings : cabac=1 / ref=4 / deblock=1:-3:-3 / analyse=0x3:0x133 / me=umh / subme=10 / psy=1 / psy_rd=1.05:0.10 / mixed_ref=1 / me_range=48 / chroma_me=1 / trellis=2 / 8x8dct=1 / cqm=0 / deadzone=21,11 / fast_pskip=0 / chroma_qp_offset=-2 / threads=24 / sliced_threads=0 / nr=0 / decimate=1 / interlaced=0 / bluray_compat=0 / constrained_intra=0 / bframes=7 / b_pyramid=2 / b_adapt=2 / b_bias=0 / direct=3 / weightb=1 / open_gop=0 / weightp=2 / keyint=250 / keyint_min=23 / scenecut=40 / intra_refresh=0 / rc_lookahead=60 / rc=2pass / mbtree=0 / bitrate=12714 / ratetol=2.0 / qcomp=0.60 / qpmin=0 / qpmax=69 / qpstep=4 / cplxblur=20.0 / qblur=0.5 / vbv_maxrate=40000 / vbv_bufsize=40000 / nal_hrd=none / ip_ratio=1.40 / pb_ratio=1.30 / aq=2:0.90
Language : English
Default : No
Forced : No

Audio #1
ID : 2
Format : AC-3
Format/Info : Audio Coding 3
Mode extension : CM (complete main)
Format settings, Endianness : Big
Muxing mode : Header stripping
Codec ID : A_AC3
Duration : 1h 35mn
Bit rate mode : Constant
Bit rate : 384 Kbps
Channel(s) : 6 channels
Channel positions : Front: L C R, Side: L R, LFE
Sampling rate : 48.0 KHz
Bit depth : 16 bits
Compression mode : Lossy
Stream size : 263 MiB (2%)
Title : Дубляж
Language : Russian
Default : Yes
Forced : No

Audio #2
ID : 3
Format : AC-3
Format/Info : Audio Coding 3
Mode extension : CM (complete main)
Format settings, Endianness : Big
Muxing mode : Header stripping
Codec ID : A_AC3
Duration : 1h 35mn
Bit rate mode : Constant
Bit rate : 384 Kbps
Channel(s) : 6 channels
Channel positions : Front: L C R, Side: L R, LFE
Sampling rate : 48.0 KHz
Bit depth : 16 bits
Compression mode : Lossy
Stream size : 263 MiB (2%)
Title : Премьер Мультимедия
Language : Russian
Default : No
Forced : No

Audio #3
ID : 4
Format : DTS
Format/Info : Digital Theater Systems
Muxing mode : Header stripping
Codec ID : A_DTS
Duration : 1h 35mn
Bit rate mode : Constant
Bit rate : 1 510 Kbps
Channel(s) : 6 channels
Channel positions : Front: L C R, Side: L R, LFE
Sampling rate : 48.0 KHz
Bit depth : 16 bits
Compression mode : Lossy
Stream size : 1.01 GiB (9%)
Title : Юрий Живов
Language : Russian
Default : No
Forced : No

Audio #4
ID : 5
Format : AC-3
Format/Info : Audio Coding 3
Mode extension : CM (complete main)
Format settings, Endianness : Big
Muxing mode : Header stripping
Codec ID : A_AC3
Duration : 1h 35mn
Bit rate mode : Constant
Bit rate : 448 Kbps
Channel(s) : 6 channels
Channel positions : Front: L C R, Side: L R, LFE
Sampling rate : 48.0 KHz
Bit depth : 16 bits
Compression mode : Lossy
Stream size : 306 MiB (3%)
Title : Денис Строев
Language : Russian
Default : No
Forced : No

Audio #5
ID : 6
Format : AC-3
Format/Info : Audio Coding 3
Mode extension : CM (complete main)
Format settings, Endianness : Big
Muxing mode : Header stripping
Codec ID : A_AC3
Duration : 1h 35mn
Bit rate mode : Constant
Bit rate : 448 Kbps
Channel(s) : 6 channels
Channel positions : Front: L C R, Side: L R, LFE
Sampling rate : 48.0 KHz
Bit depth : 16 bits
Compression mode : Lossy
Stream size : 306 MiB (3%)
Title : Михаил Чадов
Language : Russian
Default : No
Forced : No

Audio #6
ID : 7
Format : DTS
Format/Info : Digital Theater Systems
Muxing mode : Header stripping
Codec ID : A_DTS
Duration : 1h 35mn
Bit rate mode : Constant
Bit rate : 1 510 Kbps
Channel(s) : 6 channels
Channel positions : Front: L C R, Side: L R, LFE
Sampling rate : 48.0 KHz
Bit depth : 24 bits
Compression mode : Lossy
Stream size : 1.01 GiB (9%)
Title : Original
Language : English
Default : No
Forced : No

Text #1
ID : 8
Format : UTF-8
Codec ID : S_TEXT/UTF8
Codec ID/Info : UTF-8 Plain Text
Language : Russian
Default : No
Forced : No

Text #2
ID : 9
Format : UTF-8
Codec ID : S_TEXT/UTF8
Codec ID/Info : UTF-8 Plain Text
Language : English
Default : No
Forced : No

Text #3
ID : 10
Format : UTF-8
Codec ID : S_TEXT/UTF8
Codec ID/Info : UTF-8 Plain Text
Title : SDH
Language : English
Default : No
Forced : No

Text #4
ID : 11
Format : UTF-8
Codec ID : S_TEXT/UTF8
Codec ID/Info : UTF-8 Plain Text
Language : Chinese
Default : No
Forced : No

Menu
00:00:00.000 : en:Illegal Channels
00:01:38.932 : en:Main Titles
00:04:00.323 : en:The Virgins
00:06:19.129 : en:Stifler's Party
00:12:19.781 : en:The Pale Ale
00:16:48.549 : en:The Pact
00:24:08.238 : en:A Father-Son Chat
00:27:53.755 : en:The Bible
00:31:33.058 : en:Just Like Pie...
00:35:52.442 : en:By the Book
00:42:46.689 : en:Nadia on the Net
01:00:11.399 : en:Stifler's Revenge
01:03:41.359 : en:Something More Important
01:07:41.724 : en:I'm Gonna Have Sex
01:11:02.383 : en:The Prom
01:16:47.436 : en:The Palace of Love
01:27:13.770 : en:The Next Step
01:31:27.440 : en:End Titles

pb.wtf



Скачать Американский пирог через торрент http://imgtag.ru/images/83027946277.jpg Скачать фильм Американский пирог через торрент бесплантно в хорошем качестве Описание: На вечеринке четверо старшеклассников, Джим, Кевин, Финч и Оз, выясняют, что никто из них еще не имел сексуального опыта с ... 10 10 1
Info! Золотая раздача, скачанное не засчитывается.
Торрент: Зарегистрирован [2012-08-08 13:15] · скачан: 0 раз
Статус: √ проверено
Размер: 11.6 GB
Как cкачать? Как скачать Американский пирог через торрент | qTorrent

% Раздел Тема Автор DL S | L
Фильмы [HD 720p, 1080p] (Хороший звук DUB, MVO) [ 12.22 GB ] Американский пирог 2 / American Pie 2 [Unrated] [2001 BDRip DUB + Оригинал+MVO] AlexKa Скачать
1 | 0

28-11-2019 20:33  

Отключить всю рекламу на сайте

    Дорогой пользователь! Огромная просьба, поблагодарите релизера, оцените раздачу и оставьте свои комментарий, если Вы скачали Американский пирог через торрент бесплатно! Внесите свою лепту в развитие PiratBit!
    Комментировать посты могут только пользователи прошедшие не сложную регистрацию
    Показать сообщения:    

    Американский пирог через торрент
    Скачать бесплатно Американский пирог
    Американский пирог скачать торрент
    Американский пирог смотреть онлайн
    Cкачать фильм Американский пирог бесплатно
    Американский пирог скачать торрент в хорошем качестве
    Американский пирог смотреть онлайн бесплатно в хорошем качестве


    Вы не можете начинать темы
    Вы не можете отвечать на сообщения
    Вы не можете редактировать свои сообщения
    Вы не можете удалять свои сообщения
    Вы не можете голосовать в опросах
    Вы не можете прикреплять файлы к сообщениям
    Вы можете скачивать файлы