2 сезон

iTunes

1 сезон

1

iTunes

iTunes

iTunes

1 сезон

RePack

30

ИГРА 18+

pack

ВАЖНО

!!Акция!!

Alien_RageХит недели

RePack

MK11
pack

Забери бонус

RePack

jed

!!Акция!!

Alien_Rage

RePack

fifa19

RePack

Assassins Creed: Odyssey

RePack

NEED FOR SPEED™ PAYBACK

4 сезон

9 сезон

Бесстыжие 9 сезон

Все сериалы

все сериалы на PB.wtf

RePack

FAR CRY 5
  

Загнанный / The Hunted (Уильям Фридкин / William Friedkin) [2003 г., боевик, триллер, драма, криминал, BDRip 1080p]DUB, Sub rus + original eng pb.wtf

Загнанный через торрент pb.wtf

Размер: 7.55 GB | Добавлен: 8 лет 2 мес. назад | Торрент скачан:114 раз
Скачать  

08-08-2012 14:49 Загнанный Скачать торрент  

Загнанный
The Hunted
«Если ты вступил в эту игру, считай, что ты уже мертв»

Год выпуска: 2003
Страна: США
Жанр: боевик, триллер, драма, криминал
Продолжительность: 01:34:36
Перевод: Профессиональный (полное дублирование) + Оригинал
Русские субтитры: Русские
Режиссер: Уильям Фридкин / William Friedkin
В ролях: Томми Ли Джонс, Бенисио Дель Торо, Конни Нильсен, Лесли Стефансон, Джон Финн, Хосе Суньига, Рон Кэнада, Марк Пеллегрино, Дженна Бойд, Aaron DeCone
Описание:
Ушедший в отставку специалист по подготовке элитного спецназа Эл Ти Бонэм присоединяется к команде ФБР, идущей по следу жестокого убийцы. Неуловимый киллер, виртуозно владеющий боевым ножом, — один из самых одаренных учеников Эл Ти. Ему не нужен дом — в лесу он чувствует себя неуязвимым.
Ему не нужны деньги — все необходимое для жизни он может добыть сам. Ему не нужно оружие — в его руках палка или камень страшнее пулемета. Он идеальный воин, и только тому, кто обучил хладнокровного преступника мастерству убивать «быстро, аккуратно и эффективно», под силу остановить охотника на людей…
КиноПоиск\imdb
Качество: BDRip 1080р
Формат: MKV
Видео кодек: H.264
Аудио кодек: AC3
Видео: MPEG-4 AVC, 9282 Кбит/с, 1920x1040, 23.976 кадр/с
Аудио:
Русский DTS, 6 ch L C R, 1536 Кбит/с 48.0 KHz 24 bits
Английский АС3, 6 ch, 640 Кбит/с 48.0 KHz

General
Complete name : E:\Мои Фильмы\Zagnanniy.2003.x264.BDRip.1080p-kinozal.tv-HD.mkv
Format : Matroska
File size : 7.55 GiB
Duration : 1h 34mn
Overall bit rate : 11.4 Mbps
Movie name : =kinozal.tv-HD=
Encoded date : UTC 2010-06-28 06:09:02
Writing application : mkvmerge v3.1.0 ('Happy up here') built on Jan 19 2010 12:09:24
Writing library : libebml v0.7.9 + libmatroska v0.8.1
Video
ID : 1
Format : AVC
Format/Info : Advanced Video Codec
Format profile : High@L4.1
Format settings, CABAC : Yes
Format settings, ReFrames : 4 frames
Muxing mode : Container profile=Unknown@4.1
Codec ID : V_MPEG4/ISO/AVC
Duration : 1h 34mn
Bit rate : 9 282 Kbps
Width : 1 920 pixels
Height : 1 040 pixels
Display aspect ratio : 16:9
Frame rate : 23.976 fps
Color space : YUV
Chroma subsampling : 4:2:0
Bit depth : 8 bits
Scan type : Progressive
Bits/(Pixel*Frame) : 0.194
Stream size : 5.98 GiB (79%)
Writing library : x264 core 98 r1643 59a9e03
Encoding settings : cabac=1 / ref=4 / deblock=1:0:0 / analyse=0x3:0x133 / me=umh / subme=7 / psy=1 / psy_rd=1.00:0.15 / mixed_ref=1 / me_range=16 / chroma_me=1 / trellis=1 / 8x8dct=1 / cqm=0 / deadzone=21,11 / fast_pskip=0 / chroma_qp_offset=-3 / threads=12 / sliced_threads=0 / nr=0 / decimate=0 / interlaced=0 / constrained_intra=0 / bframes=3 / b_pyramid=2 / b_adapt=1 / b_bias=0 / direct=1 / weightb=1 / weightp=2 / keyint=250 / keyint_min=25 / scenecut=40 / intra_refresh=0 / rc_lookahead=40 / rc=2pass / mbtree=1 / bitrate=9282 / ratetol=1.0 / qcomp=0.60 / qpmin=10 / qpmax=51 / qpstep=4 / cplxblur=20.0 / qblur=0.5 / ip_ratio=1.40 / aq=2:1.00
Language : English
Audio #1
ID : 2
Format : DTS
Format/Info : Digital Theater Systems
Codec ID : A_DTS
Duration : 1h 34mn
Bit rate mode : Constant
Bit rate : 1 510 Kbps
Channel(s) : 6 channels
Channel positions : Front: L C R, Side: L R, LFE
Sampling rate : 48.0 KHz
Bit depth : 24 bits
Stream size : 1 022 MiB (13%)
Title : DUB
Language : Russian
Audio #2
ID : 3
Format : AC-3
Format/Info : Audio Coding 3
Mode extension : CM (complete main)
Codec ID : A_AC3
Duration : 1h 34mn
Bit rate mode : Constant
Bit rate : 640 Kbps
Channel(s) : 6 channels
Channel positions : Front: L C R, Side: L R, LFE
Sampling rate : 48.0 KHz
Stream size : 433 MiB (6%)
Language : English
Text
ID : 4
Format : UTF-8
Codec ID : S_TEXT/UTF8
Codec ID/Info : UTF-8 Plain Text
Language : Russian
pb.wtf



Скачать Загнанный через торрент http://i7.fastpic.ru/big/2010/0622/ca/7732c22917205279e7d02d01aa5a56ca.jpg Скачать фильм Загнанный через торрент бесплантно в хорошем качестве Описание:Ушедший в отставку специалист по подготовке элитного спецназа Эл Ти Бонэм присоединяется к команде ФБР, идущей по следу жестокого ... 10 10 1
Info! Золотая раздача, скачанное не засчитывается.
Торрент: Зарегистрирован [2012-08-08 14:49] · скачан: 114 раз
Статус: √ проверено
Размер: 7.55 GB
Как cкачать? Как скачать Загнанный через торрент | qTorrent

28-11-2019 20:33  

Отключить всю рекламу на сайте

08-08-2012 17:08 Загнанный Скачать торрент  

Соломон Немни не соглашусь, фильм вообще не понравился...pb.wtf



08-08-2012 18:03 Загнанный Скачать торрент  

dante3732ФИЛЬМ НОРМАЛЬНЫЙ,ДРАКИ НА НОЖАХ ПОСТАВЛЕНЫ НА УРОВНЕpb.wtf



08-08-2012 19:08 Загнанный Скачать торрент  

Оч хорошая работа...Бенисио на высоте.Киноха классная!!!!pb.wtf



08-08-2012 19:14 Загнанный Скачать торрент  

Тоже давно смотрел помню фильм, поэтому качать не буду лучше вк зайти и посмотретьpb.wtf



09-08-2012 05:28 Загнанный Скачать торрент  

качественная киношка-великолепные актёры-спасибо за раздачуpb.wtf



30-11-2014 15:06 Загнанный Скачать торрент  

Скорости! спс :jest3: pb.wtf



    Дорогой пользователь! Огромная просьба, поблагодарите релизера, оцените раздачу и оставьте свои комментарий, если Вы скачали Загнанный через торрент бесплатно! Внесите свою лепту в развитие PiratBit!
    Комментировать посты могут только пользователи прошедшие не сложную регистрацию
    Показать сообщения:    

    Загнанный через торрент
    Скачать бесплатно Загнанный
    Загнанный скачать торрент
    Загнанный смотреть онлайн
    Cкачать фильм Загнанный бесплатно
    Загнанный скачать торрент в хорошем качестве
    Загнанный смотреть онлайн бесплатно в хорошем качестве


    Вы не можете начинать темы
    Вы не можете отвечать на сообщения
    Вы не можете редактировать свои сообщения
    Вы не можете удалять свои сообщения
    Вы не можете голосовать в опросах
    Вы не можете прикреплять файлы к сообщениям
    Вы можете скачивать файлы