Ссылка на приватное зеркало нашего сайта всего за 1$. Внимание количество ограничено!!!

2 сезон

iTunes

1 сезон

1

iTunes

iTunes

iTunes

1 сезон

RePack

30

ИГРА 18+

pack

ВАЖНО

!!Акция!!

Alien_RageХит недели

RePack

MK11
pack

Забери бонус

RePack

jed

!!Акция!!

Alien_Rage

RePack

fifa19

RePack

Assassins Creed: Odyssey

RePack

NEED FOR SPEED™ PAYBACK

4 сезон

9 сезон

Бесстыжие 9 сезон

Все сериалы

все сериалы на PB.wtf

RePack

FAR CRY 5
  

Шеф [2012 г., комедия, BDRip (1080p), Профессиональный лицензия + Оригинал] pb.wtf

Шеф [2012 г., комедия, BDRip через торрент pb.wtf

Качают: 1 [ 0 KB/s ]
Размер: 6.78 GB | Добавлен: 8 лет 2 мес. назад | Торрент скачан:127 раз
Скачать  

08-08-2012 20:14 Шеф [2012 г., комедия, BDRip Скачать торрент  

Шеф / Comme un chef

Год выпуска: 2012
Страна: Франция, Испания
Жанр: комедия
Продолжительность: 01:21:08
Перевод: Профессиональный Лицензия + Оригинал

Тип релиза: Лицензия

Режиссер: Дэниэл Коэн

В ролях: Жан Рено, Микаэль Юн, Рафаэль Агоге, Жюльен Буасселье, Салом Стевенен, Серж Ларивье, Исса Думбия, Бан Хэй Мин, Пьер Вернье, Сантьяго Сегура

Описание: Молодой начинающий повар пытается изменить жизненный устой и предпочтения уже известного «звёздного» шеф-повара, и это упрямство и упорство делает из молодого человека настоящего короля кухни!

Качество: BDRip (1080p)
Формат: MKV
Видео кодек: AVC
Аудио кодек: AC3
Видео: AVC, 1920x800 (2.40:1), 24.000 fps, 9 590 Kbps (0.260 bit/pixel)
Аудио#1: AC-3, 48.0 KHz, 6 ch, 384 Kbps, CBR (Russian)
Аудио#2: DTS, 48.0 KHz, 6 ch, 1 510 Kbps, CBR (French)


General
Unique ID : 182897325223039688198354672758736397733 (0x8998BE589B7049CD89926AC75855A5A5)
Complete name : D:\Shef.2012.x264.BDRip.(1080p).mkv
Format : Matroska
Format version : Version 2
File size : 6.78 GiB
Duration : 1h 24mn
Overall bit rate : 11.5 Mbps
Movie name : --SCHUMAHER--
Encoded date : UTC 2012-08-08 15:55:34
Writing application : mkvmerge v5.7.0 ('The Whirlwind') built on Jul 8 2012 20:08:51
Writing library : libebml v1.2.3 + libmatroska v1.3.0

Video
ID : 1
Format : AVC
Format/Info : Advanced Video Codec
Format profile : High@L4.1
Format settings, CABAC : Yes
Format settings, ReFrames : 5 frames
Codec ID : V_MPEG4/ISO/AVC
Duration : 1h 24mn
Bit rate : 9 590 Kbps
Width : 1 920 pixels
Height : 800 pixels
Display aspect ratio : 2.40:1
Frame rate : 24.000 fps
Color space : YUV
Chroma subsampling : 4:2:0
Bit depth : 8 bits
Scan type : Progressive
Bits/(Pixel*Frame) : 0.260
Stream size : 5.53 GiB (82%)
Writing library : x264 core 125 r2208 d9d2288
Encoding settings : cabac=1 / ref=5 / deblock=1:0:0 / analyse=0x3:0x113 / me=umh / subme=8 / psy=1 / psy_rd=1.00:0.00 / mixed_ref=1 / me_range=16 / chroma_me=1 / trellis=1 / 8x8dct=1 / cqm=0 / deadzone=21,11 / fast_pskip=1 / chroma_qp_offset=-2 / threads=6 / lookahead_threads=1 / sliced_threads=0 / nr=0 / decimate=1 / interlaced=0 / bluray_compat=0 / constrained_intra=0 / bframes=3 / b_pyramid=2 / b_adapt=2 / b_bias=0 / direct=3 / weightb=1 / open_gop=0 / weightp=2 / keyint=240 / keyint_min=24 / scenecut=40 / intra_refresh=0 / rc_lookahead=50 / rc=2pass / mbtree=1 / bitrate=9590 / ratetol=1.0 / qcomp=0.60 / qpmin=0 / qpmax=69 / qpstep=4 / cplxblur=20.0 / qblur=0.5 / ip_ratio=1.40 / aq=1:1.00
Language : French
Default : Yes
Forced : Yes

Audio #1
ID : 2
Format : AC-3
Format/Info : Audio Coding 3
Mode extension : CM (complete main)
Format settings, Endianness : Big
Codec ID : A_AC3
Duration : 1h 24mn
Bit rate mode : Constant
Bit rate : 384 Kbps
Channel(s) : 6 channels
Channel positions : Front: L C R, Side: L R, LFE
Sampling rate : 48.0 KHz
Bit depth : 16 bits
Compression mode : Lossy
Stream size : 232 MiB (3%)
Language : Russian
Default : Yes
Forced : Yes

Audio #2
ID : 3
Format : DTS
Format/Info : Digital Theater Systems
Codec ID : A_DTS
Duration : 1h 24mn
Bit rate mode : Constant
Bit rate : 1 510 Kbps
Channel(s) : 6 channels
Channel positions : Front: L C R, Side: L R, LFE
Sampling rate : 48.0 KHz
Bit depth : 24 bits
Compression mode : Lossy
Stream size : 912 MiB (13%)
Language : French
Default : No
Forced : No

Menu
00:00:00.000 : en:00:00:00.000
00:08:37.667 : en:00:08:37.667
00:16:06.000 : en:00:16:06.000
00:21:11.750 : en:00:21:11.750
00:31:29.375 : en:00:31:29.375
00:38:04.583 : en:00:38:04.583
00:47:37.875 : en:00:47:37.875
00:52:53.500 : en:00:52:53.500
01:02:49.500 : en:01:02:49.500
01:10:17.833 : en:01:10:17.833
01:17:04.000 : en:01:17:04.000
01:21:15.625 : en:01:21:15.625

pb.wtf



Скачать Шеф [2012 г., комедия, BDRip через торрент http://imgtag.ru/images/525ea845fa5c330c8436a4f99.png Скачать фильм Шеф [2012 г., комедия, BDRip через торрент бесплантно в хорошем качестве Описание: Молодой начинающий повар пытается изменить жизненный устой и предпочтения уже известного «звёздного» шеф-повара, и это упрямство ... 10 10 1
Info! Золотая раздача, скачанное не засчитывается.
Торрент: Зарегистрирован [2012-08-08 20:14] · скачан: 127 раз
Статус: √ проверено
Размер: 6.78 GB
Как cкачать? Как скачать Шеф [2012 г., комедия, BDRip через торрент | qTorrent

% Раздел Тема Автор DL S | L
Фильмы (HD 720p, 1080p) (48-60 fps) [ 3.1 GB ] Шеф Адам Джонс / Burnt [2015 . BDRip - HEVC 1080p 10 bit 60 FPS MVO НТВ dd2d3 Скачать
2 | 0
Зарубежные сериалы [ 5.36 GB ] Лига / The League / Сезон: 1 / Серии: 1-6 из 6 [2009 BDRip 720p] [MVO] killermax2013 Скачать
1 | 0
Зарубежные сериалы [ 12.53 GB ] Лига / The League / Сезон: 1 / Серии: 1-6 из 6 [2009 BDRip 1080p] [MVO] killermax2013 Скачать
1 | 0
Развлекательные телепередачи и шоу, приколы и юмор [ 29.16 GB ] Войны шефов / The Final Table / Сезон: 1 / Выпуски: 1-10 из 10 [2018 Реалити-шоу кулинария WEB-DL 1080p] MVO [Кириллица / Netflix] bober100 Скачать
1 | 0
T Фильмы 2019-2020 [DVDrip, WEB-DLRip, HDrip] (DUB, MVO) [ 1.37 GB ] Разбитая губа / Split Lip [2019 WEB-DLRip] MVO [HDRezka Studio] - ExKinoRay Enigma2010 Скачать
3 | 0
Зарубежные сериалы [ 10.36 GB ] По друзьям / Crashing / Сезон: 3 / Серии: 1-8 из 8 [2019 WEB-DL 720p] MVO [Jaskier] bober100 Скачать
1 | 0
Зарубежные сериалы [ 2.88 GB ] По друзьям / Crashing / Сезон: 3 / Серии: 1-8 из 8 [2019 WEB-DLRip] MVO [Jaskier] bober100 Скачать
1 | 0

28-11-2019 20:33  

Отключить всю рекламу на сайте

    Дорогой пользователь! Огромная просьба, поблагодарите релизера, оцените раздачу и оставьте свои комментарий, если Вы скачали Шеф [2012 г., комедия, BDRip через торрент бесплатно! Внесите свою лепту в развитие PiratBit!
    Комментировать посты могут только пользователи прошедшие не сложную регистрацию
    Показать сообщения:    

    Шеф [2012 г., комедия, BDRip через торрент
    Скачать бесплатно Шеф [2012 г., комедия, BDRip
    Шеф [2012 г., комедия, BDRip скачать торрент
    Шеф [2012 г., комедия, BDRip смотреть онлайн
    Cкачать фильм Шеф [2012 г., комедия, BDRip бесплатно
    Шеф [2012 г., комедия, BDRip скачать торрент в хорошем качестве
    Шеф [2012 г., комедия, BDRip смотреть онлайн бесплатно в хорошем качестве


    Вы не можете начинать темы
    Вы не можете отвечать на сообщения
    Вы не можете редактировать свои сообщения
    Вы не можете удалять свои сообщения
    Вы не можете голосовать в опросах
    Вы не можете прикреплять файлы к сообщениям
    Вы можете скачивать файлы