2 сезон

iTunes

MVO

1

2 сезон

iTunes

iTunes

1 сезон

RePack

30

Новинка

ВАЖНО

ИГРА 18+

pack

RePack

MK11
pack

Легкие деньги

RePack

jed

RePack

fifa19

RePack

RDR2

RePack

NEED FOR SPEED™ PAYBACK

4 сезон

9 сезон

Бесстыжие 9 сезон

Все сериалы

все сериалы на PB.wtf

RePack

FAR CRY 5

Anonymous, добрый вечер, мы не успеваем собрать деньги на оплату серверов за декабрь и январь, помогите нам пожалуйста в это трудное время. В качестве благодарности мы отключим Вам всю рекламу на сайте (укажите свой ник в строку Ваше имя)!

×
  
Magnet ссылка

Олимпийская деревня (Александр Сухарев) [2010, Комедия, SATRip] pb.wtf

Олимпийская деревня через торрент pb.wtf

Размер: 747 MB | Добавлен: 7 лет 9 мес. назад | Торрент скачан:89 раз
Скачать  

09-08-2012 05:57 Олимпийская деревня Скачать торрент  

Олимпийская деревня

Год выпуска: 2010
Страна: Россия
Жанр: Комедия
Продолжительность: 01:19:06
Субтитры: Нет

Режиссёр: Александр Сухарев

В ролях: Анастасия Городенцева, Сергей Колешня, Денис Никифоров, Валерий Гаркалин, Михаил Ефремов, Виктор Бычков, Ольга Волкова, Владимир Гусев, Тимофей Трибунцев, Геннадий Хазанов, Сергей Степанченко, Галина Петрова, Инга Оболдина, Алексей Булдаков, Людмила Чурсина, Алексей Гиммельрейх, Инна Сухарева, Максим Январев, Михаил Куряев, Владимир Моташнев.

Описание: Москва, лето 1980 года. Власти СССР готовят Москву к приезду олимпийских гостей. В связи с кампанией по «очищению» Москвы, неблагонадежных граждан, инакомыслящих и диссидентов на время Олимпиады отправляют за 101-й, километр, в дачные поселки и санатории. В числе этих граждан – инфантильный виолончелист Арсений Чайка, который, победив на конкурсе имени Чайковского, привлёк к себе излишнее внимание иностранной музыкальной прессы и теперь находится под пристальным вниманием соответствующих органов. С виолончелью за спиной и с единственным другом - кроликом - на руках Арсений отправляется в «ссылку»...

Семпл: http://multi-up.com/744013

Качество: SATRip
Формат: AVI
Видео кодек: XviD
Аудио кодек: МР3
Видео: 720x400 (1.80:1), 25 fps, XviD build 50 ~1182 kbps avg, 0.16 bit/pixel
Аудио: 48 kHz, MPEG Layer 3, 2 ch, ~128.00 kbps avg
Общее
Полное имя : D:\Рип\Олимпийская деревня.avi
Формат : AVI
Формат/Информация : Audio Video Interleave
Размер файла : 747 Мбайт
Продолжительность : 1 ч. 19 м.
Общий поток : 1320 Кбит/сек
Программа кодирования : VirtualDubMod 1.5.10.3 | www.virtualdub-fr.org || (build 2550/release)
Библиотека кодирования : VirtualDubMod build 2550/release

Видео
Идентификатор : 0
Формат : MPEG-4 Visual
Профиль формата : Advanced Simple@L5
Параметр BVOP формата : 1
Параметр QPel формата : Нет
Параметр GMC формата : Без точки перехода
Параметр матрицы формата : Default (MPEG)
Идентификатор кодека : XVID
Идентификатор кодека/Подсказка : XviD
Продолжительность : 1 ч. 19 м.
Битрейт : 1182 Кбит/сек
Ширина : 720 пикселей
Высота : 400 пикселей
Соотношение сторон : 16:9
Частота кадров : 25,000 кадров/сек
Цветовое пространство : YUV
Субдискретизация насыщенности : 4:2:0
Битовая глубина : 8 бит
Тип развёртки : Прогрессивная
Метод сжатия : С потерями
Бит/(Пиксели*Кадры) : 0.164
Размер потока : 669 Мбайт (90%)
Библиотека кодирования : XviD 1.2.1 (UTC 2008-12-04)

Аудио
Идентификатор : 1
Формат : MPEG Audio
Версия формата : Version 1
Профиль формата : Layer 3
Идентификатор кодека : 55
Идентификатор кодека/Подсказка : MP3
Продолжительность : 1 ч. 19 м.
Вид битрейта : Постоянный
Битрейт : 128 Кбит/сек
Каналы : 2 канала
Частота : 48,0 КГц
Метод сжатия : С потерями
Размер потока : 72,4 Мбайт (10%)
Выравнивание : Соединение по промежуткам
Продолжительность промежутка : 40 мс. (1,00 видеокадр)
Время предзагрузки промежутка : 504 мс.
Библиотека кодирования : LAME3.98r
Настройки программы : -m s -V 4 -q 2 -lowpass 17 -b 128
pb.wtf



Скачать Олимпийская деревня через торрент http://i42.fastpic.ru/big/2012/0729/07/b5c131dec7f71164545cac2b53c76507.jpg Скачать фильм Олимпийская деревня через торрент бесплантно в хорошем качестве Описание: Москва, лето 1980 года. Власти СССР готовят Москву к приезду олимпийских гостей. В связи с кампанией по «очищению» Москвы, ... 4.3 10 7
Info! Золотая раздача, скачанное не засчитывается.
Торрент: Зарегистрирован [2013-03-25 16:37] · скачан: 89 раз
Статус: √ проверено
Размер: 747 MB
Как cкачать? Как скачать Олимпийская деревня через торрент | UTorrent

28-11-2019 20:33  

Отключить всю рекламу на сайте

    Дорогой пользователь! Огромная просьба, поблагодарите релизера, оцените раздачу и оставьте свои комментарий, если Вы скачали Олимпийская деревня через торрент бесплатно! Внесите свою лепту в развитие PiratBit!
    Комментировать посты могут только пользователи прошедшие не сложную регистрацию
    Показать сообщения:    

    Олимпийская деревня через торрент
    Скачать бесплатно Олимпийская деревня
    Олимпийская деревня скачать торрент
    Олимпийская деревня смотреть онлайн
    Cкачать фильм Олимпийская деревня бесплатно
    Олимпийская деревня скачать торрент в хорошем качестве
    Олимпийская деревня смотреть онлайн бесплатно в хорошем качестве


    Вы не можете начинать темы
    Вы не можете отвечать на сообщения
    Вы не можете редактировать свои сообщения
    Вы не можете удалять свои сообщения
    Вы не можете голосовать в опросах
    Вы не можете прикреплять файлы к сообщениям
    Вы можете скачивать файлы