Ссылка на приватное зеркало нашего сайта всего за 1$. Внимание количество ограничено!!!

2 сезон

iTunes

1 сезон

1

iTunes

iTunes

iTunes

1 сезон

RePack

30

ИГРА 18+

pack

ВАЖНО

!!Акция!!

Alien_RageХит недели

RePack

MK11
pack

Забери бонус

RePack

jed

!!Акция!!

Alien_Rage

RePack

fifa19

RePack

Assassins Creed: Odyssey

RePack

NEED FOR SPEED™ PAYBACK

4 сезон

9 сезон

Бесстыжие 9 сезон

Все сериалы

все сериалы на PB.wtf

RePack

FAR CRY 5
  

Американский пирог 2 / American Pie 2 [Unrated] (Джеймс Б. Роджерс) [2001 г., комедия, мелодрама, BDRip (1080p), DUB + Оригинал+MVO] pb.wtf

Американский пирог 2 через торрент pb.wtf

Размер: 12.22 GB | Добавлен: 8 лет 2 мес. назад | Торрент скачан:0 раз
Скачать  

09-08-2012 08:37 Американский пирог 2 Скачать торрент  

Американский пирог 2 / American Pie 2 [Unrated]

Год выпуска: 2001
Страна: США | LivePlanet, Universal Pictures, Zide-Perry Productions
Жанр: комедия, мелодрама
Продолжительность: 01:50:40
Перевод: Дубляж + Оригинал+MVO

Режиссер: Джеймс Б. Роджерс

В ролях: Джейсон Биггз, Элисон Хэннигэн, Крис Клейн, Томас Иэн Николас, Шонн Уильям Скотт, Эдди Кэй Томас, Мена Сувари, Шеннон Элизабет, Юджин Леви, Наташа Лионни

Описание: Со времен первого фильма прошел год, все герои теперь учатся не в средней школе, а в колледже, и летом на каникулы решают снять загородный дом, где можно весело провести время, поваляться на пляже и погоняться за девчонками, коих там в избытке.

Впрочем, проблемы себе найдет каждый из героев: к Джиму собирается приехать та самая «студентка по обмену» Надя, с которой он публично облажался в первом фильме, Кевин понял, что просто друзьями с Викки он быть не может, а Крис никак не может заняться сексом по телефону со своей подругой Хезер, уехавшей на учебу в другой город. В довершение всего Пол Финч начал практиковать тантрический секс, считая дни до прибытия Мамы Стифлера.

Качество: BDRip (1080p)
Формат: MKV
Видео кодек: AVC
Аудио кодек: AC3
Видео: AVC, 1920x1040 (16:9), 23.976 fps, 10.8 Mbps (0.225 bit/pixel)
Аудио#1: Русский (Дублированный), AC3, 6ch (L, C, R, Ls, Rs +LFE), 384 кбит/с |МОСФИЛЬМ-мастер|
Аудио#2: Русский ((Профессиональный (многоголосый)), AC3, 6ch (L, C, R, Ls, Rs +LFE), 384 кбит/с |Премьер Мультимедия|
Аудио#3: Русский ((Профессиональный (многоголосый)), AC3, 2ch (L,R), 192 кбит/с |Премьер Видеофильм|
Аудио#4: Английский (Оригинал), DTS, 6ch (L, C, R, Ls, Rs +LFE), 1536 кбит/с
Звук #5: Русский (Профессиональный (один голос)), DTS, 6ch (L, C, R, Ls, Rs +LFE), 1536 кбит/с |Юрий Живов|
Звук #6: Русский (Профессиональный (один голос)), AC3, 6ch (L, C, R, Ls, Rs +LFE), 448 кбит/с |Михаил Чадов|
Звук #7: Русский (Профессиональный (один голос)), AC3, 6ch (L, C, R, Ls, Rs +LFE), 448 кбит/с |Денис Строев|

Субтитры: Русские, Английские (для глухих и слабослышащих), Венгерские, Датские, Испанские, Финские, Французские, Исландские, Итальянские, Немецкие, Норвежские, Шведские


General
Unique ID : 184160887920198253240664110214297044860 (0x8A8C18CC043B10E081CA54C29EC2477C)
Complete name : E:\American.Pie.2.[Unrated].2001.1080p.BDRip.x264.dts.ac3.eng.rus.mkv
Format : Matroska
Format version : Version 2
File size : 12.2 GiB
Duration : 1h 50mn
Overall bit rate : 15.8 Mbps
Movie name : American Pie 2 (2001)
Encoded date : UTC 2012-06-30 05:14:53
Writing application : mkvmerge v5.6.0 ('Kenya Kane') built on May 27 2012 16:44:04
Writing library : libebml v1.2.3 + libmatroska v1.3.0

Video
ID : 1
Format : AVC
Format/Info : Advanced Video Codec
Format profile : High@L4.1
Format settings, CABAC : Yes
Format settings, ReFrames : 4 frames
Muxing mode : Header stripping
Codec ID : V_MPEG4/ISO/AVC
Duration : 1h 50mn
Bit rate : 10.8 Mbps
Width : 1 920 pixels
Height : 1 040 pixels
Display aspect ratio : 1.85:1
Frame rate : 23.976 fps
Color space : YUV
Chroma subsampling : 4:2:0
Bit depth : 8 bits
Scan type : Progressive
Bits/(Pixel*Frame) : 0.225
Stream size : 8.06 GiB (66%)
Writing library : x264 core 120 r2146 bcd41db
Encoding settings : cabac=1 / ref=4 / deblock=1:-3:-3 / analyse=0x3:0x133 / me=umh / subme=10 / psy=1 / psy_rd=1.05:0.10 / mixed_ref=1 / me_range=48 / chroma_me=1 / trellis=2 / 8x8dct=1 / cqm=0 / deadzone=21,11 / fast_pskip=0 / chroma_qp_offset=-2 / threads=24 / sliced_threads=0 / nr=0 / decimate=1 / interlaced=0 / bluray_compat=0 / constrained_intra=0 / bframes=7 / b_pyramid=2 / b_adapt=2 / b_bias=0 / direct=3 / weightb=1 / open_gop=0 / weightp=2 / keyint=250 / keyint_min=23 / scenecut=40 / intra_refresh=0 / rc_lookahead=60 / rc=2pass / mbtree=0 / bitrate=10780 / ratetol=2.0 / qcomp=0.60 / qpmin=0 / qpmax=69 / qpstep=4 / cplxblur=20.0 / qblur=0.5 / vbv_maxrate=40000 / vbv_bufsize=40000 / nal_hrd=none / ip_ratio=1.40 / pb_ratio=1.30 / aq=2:0.90
Language : English
Default : Yes
Forced : No

Audio #1
ID : 2
Format : AC-3
Format/Info : Audio Coding 3
Mode extension : CM (complete main)
Format settings, Endianness : Big
Muxing mode : Header stripping
Codec ID : A_AC3
Duration : 1h 50mn
Bit rate mode : Constant
Bit rate : 384 Kbps
Channel(s) : 6 channels
Channel positions : Front: L C R, Side: L R, LFE
Sampling rate : 48.0 KHz
Bit depth : 16 bits
Compression mode : Lossy
Stream size : 304 MiB (2%)
Title : Дубляж
Language : Russian
Default : Yes
Forced : No

Audio #2
ID : 3
Format : AC-3
Format/Info : Audio Coding 3
Mode extension : CM (complete main)
Format settings, Endianness : Big
Muxing mode : Header stripping
Codec ID : A_AC3
Duration : 1h 50mn
Bit rate mode : Constant
Bit rate : 384 Kbps
Channel(s) : 6 channels
Channel positions : Front: L C R, Side: L R, LFE
Sampling rate : 48.0 KHz
Bit depth : 16 bits
Compression mode : Lossy
Stream size : 304 MiB (2%)
Title : Премьер Мультимедия
Language : Russian
Default : No
Forced : No

Audio #3
ID : 4
Format : AC-3
Format/Info : Audio Coding 3
Mode extension : CM (complete main)
Format settings, Endianness : Big
Muxing mode : Header stripping
Codec ID : A_AC3
Duration : 1h 50mn
Bit rate mode : Constant
Bit rate : 192 Kbps
Channel(s) : 2 channels
Channel positions : Front: L R
Sampling rate : 48.0 KHz
Bit depth : 16 bits
Compression mode : Lossy
Stream size : 152 MiB (1%)
Title : Премьер Видеофильм
Language : Russian
Default : No
Forced : No

Audio #4
ID : 5
Format : DTS
Format/Info : Digital Theater Systems
Muxing mode : Header stripping
Codec ID : A_DTS
Duration : 1h 50mn
Bit rate mode : Constant
Bit rate : 1 510 Kbps
Channel(s) : 6 channels
Channel positions : Front: L C R, Side: L R, LFE
Sampling rate : 48.0 KHz
Bit depth : 24 bits
Compression mode : Lossy
Stream size : 1.17 GiB (10%)
Title : Юрий Живов
Language : Russian
Default : No
Forced : No

Audio #5
ID : 6
Format : AC-3
Format/Info : Audio Coding 3
Mode extension : CM (complete main)
Format settings, Endianness : Big
Muxing mode : Header stripping
Codec ID : A_AC3
Duration : 1h 50mn
Bit rate mode : Constant
Bit rate : 448 Kbps
Channel(s) : 6 channels
Channel positions : Front: L C R, Side: L R, LFE
Sampling rate : 48.0 KHz
Bit depth : 16 bits
Compression mode : Lossy
Stream size : 355 MiB (3%)
Title : Михаил Чадов
Language : Russian
Default : No
Forced : No

Audio #6
ID : 7
Format : AC-3
Format/Info : Audio Coding 3
Mode extension : CM (complete main)
Format settings, Endianness : Big
Muxing mode : Header stripping
Codec ID : A_AC3
Duration : 1h 50mn
Bit rate mode : Constant
Bit rate : 448 Kbps
Channel(s) : 6 channels
Channel positions : Front: L C R, Side: L R, LFE
Sampling rate : 48.0 KHz
Bit depth : 16 bits
Compression mode : Lossy
Stream size : 355 MiB (3%)
Title : Денис Строев
Language : Russian
Default : No
Forced : No

Audio #7
ID : 8
Format : AC-3
Format/Info : Audio Coding 3
Mode extension : CM (complete main)
Format settings, Endianness : Big
Muxing mode : Header stripping
Codec ID : A_AC3
Duration : 1h 50mn
Bit rate mode : Constant
Bit rate : 192 Kbps
Channel(s) : 2 channels
Channel positions : Front: L R
Sampling rate : 48.0 KHz
Bit depth : 16 bits
Compression mode : Lossy
Stream size : 152 MiB (1%)
Title : VO
Language : Russian
Default : No
Forced : No

Audio #8
ID : 9
Format : DTS
Format/Info : Digital Theater Systems
Muxing mode : Header stripping
Codec ID : A_DTS
Duration : 1h 50mn
Bit rate mode : Constant
Bit rate : 1 510 Kbps
Channel(s) : 6 channels
Channel positions : Front: L C R, Side: L R, LFE
Sampling rate : 48.0 KHz
Bit depth : 24 bits
Compression mode : Lossy
Stream size : 1.17 GiB (10%)
Title : Original
Language : English
Default : No
Forced : No

Text #1
ID : 10
Format : UTF-8
Codec ID : S_TEXT/UTF8
Codec ID/Info : UTF-8 Plain Text
Language : Russian
Default : No
Forced : No

Text #2
ID : 11
Format : UTF-8
Codec ID : S_TEXT/UTF8
Codec ID/Info : UTF-8 Plain Text
Title : English SDH Subtitle - SRT
Language : English
Default : No
Forced : No

Text #3
ID : 12
Format : UTF-8
Codec ID : S_TEXT/UTF8
Codec ID/Info : UTF-8 Plain Text
Title : Hungarian Subtitle - SRT
Language : Hungarian
Default : No
Forced : No

Text #4
ID : 13
Format : UTF-8
Codec ID : S_TEXT/UTF8
Codec ID/Info : UTF-8 Plain Text
Title : Danish Subtitle - SRT
Language : Danish
Default : No
Forced : No

Text #5
ID : 14
Format : UTF-8
Codec ID : S_TEXT/UTF8
Codec ID/Info : UTF-8 Plain Text
Title : Spanish Subtitle - SRT
Language : Spanish
Default : No
Forced : No

Text #6
ID : 15
Format : UTF-8
Codec ID : S_TEXT/UTF8
Codec ID/Info : UTF-8 Plain Text
Title : Finnish Subtitle - SRT
Language : Finnish
Default : No
Forced : No

Text #7
ID : 16
Format : UTF-8
Codec ID : S_TEXT/UTF8
Codec ID/Info : UTF-8 Plain Text
Title : French Subtitle - SRT
Language : French
Default : No
Forced : No

Text #8
ID : 17
Format : UTF-8
Codec ID : S_TEXT/UTF8
Codec ID/Info : UTF-8 Plain Text
Title : German Subtitle - SRT
Language : German
Default : No
Forced : No

Text #9
ID : 18
Format : UTF-8
Codec ID : S_TEXT/UTF8
Codec ID/Info : UTF-8 Plain Text
Title : Icelandic Subtitle - SRT
Language : Icelandic
Default : No
Forced : No

Text #10
ID : 19
Format : UTF-8
Codec ID : S_TEXT/UTF8
Codec ID/Info : UTF-8 Plain Text
Title : Italian Subtitle - SRT
Language : Italian
Default : No
Forced : No

Text #11
ID : 20
Format : UTF-8
Codec ID : S_TEXT/UTF8
Codec ID/Info : UTF-8 Plain Text
Title : Dutch Subtitle - SRT
Language : Dutch
Default : No
Forced : No

Text #12
ID : 21
Format : UTF-8
Codec ID : S_TEXT/UTF8
Codec ID/Info : UTF-8 Plain Text
Title : Norwegian Subtitle - SRT
Language : Norwegian
Default : No
Forced : No

Text #13
ID : 22
Format : UTF-8
Codec ID : S_TEXT/UTF8
Codec ID/Info : UTF-8 Plain Text
Title : Portuguese Subtitle - SRT
Language : Portuguese
Default : No
Forced : No

Text #14
ID : 23
Format : UTF-8
Codec ID : S_TEXT/UTF8
Codec ID/Info : UTF-8 Plain Text
Title : Swedish Subtitle - SRT
Language : Swedish
Default : No
Forced : No

Menu
00:00:00.000 : en:00:00:00.000
00:06:15.292 : en:00:06:15.292
00:08:33.930 : en:00:08:33.930
00:15:53.661 : en:00:15:53.661
00:20:22.012 : en:00:20:22.012
00:22:41.819 : en:00:22:41.819
00:27:22.224 : en:00:27:22.224
00:34:31.278 : en:00:34:31.278
00:38:09.204 : en:00:38:09.204
00:41:33.408 : en:00:41:33.408
00:44:11.107 : en:00:44:11.107
00:57:56.139 : en:00:57:56.139
01:05:34.305 : en:01:05:34.305
01:14:42.228 : en:01:14:42.228
01:18:09.935 : en:01:18:09.935
01:24:02.829 : en:01:24:02.829
01:28:26.301 : en:01:28:26.301
01:36:27.448 : en:01:36:27.448
01:41:07.603 : en:01:41:07.603
01:44:04.613 : en:01:44:04.613

pb.wtf



Скачать Американский пирог 2 через торрент http://s002.youpic.su/pictures/1344456000/62df705090b1ca29485dfd5a54ba71cb.jpg Скачать фильм Американский пирог 2 через торрент бесплантно в хорошем качестве Описание: Со времен первого фильма прошел год, все герои теперь учатся не в средней школе, а в колледже, и летом на каникулы решают снять ... 9.8 10 5
Info! Золотая раздача, скачанное не засчитывается.
Торрент: Зарегистрирован [2012-08-09 08:37] · скачан: 0 раз
Статус: √ проверено
Размер: 12.22 GB
Как cкачать? Как скачать Американский пирог 2 через торрент | qTorrent

% Раздел Тема Автор DL S | L
Фильмы 2001-2005 [ 748 MB ] Американский пирог 2 / American Pie 2 [2001 DVDRip] markfiter Скачать
1 | 0


Последний раз редактировалось: AlexKa (2012-08-09 08:57), всего редактировалось 3 раз(а)

28-11-2019 20:33  

Отключить всю рекламу на сайте

09-08-2012 09:20 Американский пирог 2 Скачать торрент  

3 часть на подходе!pb.wtf



    Дорогой пользователь! Огромная просьба, поблагодарите релизера, оцените раздачу и оставьте свои комментарий, если Вы скачали Американский пирог 2 через торрент бесплатно! Внесите свою лепту в развитие PiratBit!
    Комментировать посты могут только пользователи прошедшие не сложную регистрацию
    Показать сообщения:    

    Американский пирог 2 через торрент
    Скачать бесплатно Американский пирог 2
    Американский пирог 2 скачать торрент
    Американский пирог 2 смотреть онлайн
    Cкачать фильм Американский пирог 2 бесплатно
    Американский пирог 2 скачать торрент в хорошем качестве
    Американский пирог 2 смотреть онлайн бесплатно в хорошем качестве


    Вы не можете начинать темы
    Вы не можете отвечать на сообщения
    Вы не можете редактировать свои сообщения
    Вы не можете удалять свои сообщения
    Вы не можете голосовать в опросах
    Вы не можете прикреплять файлы к сообщениям
    Вы можете скачивать файлы