2 сезон

iTunes

MVO

1

2 сезон

iTunes

iTunes

1 сезон

RePack

30

Ultimate

ВАЖНО

ИГРА 18+

pack

RePack

MK11
pack

Легкие деньги

RePack

jed

RePack

fifa19

RePack

RDR2

RePack

NEED FOR SPEED™ PAYBACK

4 сезон

9 сезон

Бесстыжие 9 сезон

Все сериалы

все сериалы на PB.wtf

RePack

FAR CRY 5

Anonymous, добрый вечер, мы не успеваем собрать деньги на оплату серверов за декабрь и январь, помогите нам пожалуйста в это трудное время. В качестве благодарности мы отключим Вам всю рекламу на сайте (укажите свой ник в строку Ваше имя)!

×
  
Magnet ссылка

Внутри человеческого тела (сериал) / Inside the Human Body[01-04 из 4] (Гидеон Брэдшоу, Нат Шарман) [2011 г., документальный, BDRip (720p), VO]AVO Александр Напарин, + original eng pb.wtf

Внутри человеческого тела через торрент pb.wtf

Размер: 9.36 GB | Добавлен: 8 лет 5 мес. назад | Торрент скачан:201 раз
Скачать  

09-08-2012 18:28 Внутри человеческого тела Скачать торрент  

Внутри человеческого тела (сериал) / Inside the Human Body
Год выпуска: 2011
Страна: Великобритания
Жанр: документальный
Продолжительность: 4 x 00:50:00
Перевод: Профессиональный (одноголосый)[Александр Напарин]
Режиссер: Гидеон Брэдшоу, Нат Шарман
Продюссер: Эндрю Коэн, Элис Харпер
Премьера в мире: 5 мая 2011
Мировой рейтинг IMDB 8.50 (156)

В ролях: Кристофер Коттон, Майкл Дж. Мосли
Описание: Популярный минисериал, снятый при помощи самых современных технологий и рассказывающий о некоторых важнейших процессах, происходящих в нашем организме. Майкл Мосли дарит нам фантастическое путешествие по вселенной, которая находится внутри нас.
Качество: BDRip (720p)
Формат: MKV
Видео кодек: H.264x
Аудио кодек: AC3,DTS
Видео: AVC at 5232 Кбит/сек : 1280 x 720 (1.778) at 25.000 fps
Аудио#1: AC-3 at 192 Кбит/сек : 2 канала, 48,0 КГц Language : ru
Аудио#2: DTS at 1510 Кбит/сек : 2 канала, 48,0 КГц Language : en
1. Creation / Сотворение
Майкл Мосли расскажет о последовательности биологических событий, которые приводят к человеческому рождению. Прекрасная компьютерная графика продемонстрирует нам события, которые происходят в организме матери от момента зачатия до момента рождения, от опасной гонки миллионов сперматозоидов к яйцеклетке и до первых делящихся клеток эмбриона. Мы будем наблюдать за парой, ожидающую тройню, а также познакомимся с самыми старыми в мире сиамскими близнецами.
2. First to Last / От начала и до конца
Майкл Мосли показывает, как тело выполняет бесчисленные маленькие чудеса, чтобы остаться в живых. Мы будем свидетелями родов в воде, познакомимся со строением кровеносных сосудов и сердца, а также встретимся с людьми, чье тело адаптировалось к экстремальным условиям - с Гербертом Ницшем, чемпионом по фридайвингу, который может задерживать дыхание на 9 минут, с Вимом Хофом, известным более как «Ледяной человек», и имеющего 9 мировых рекордов морозоустойчивости, и Дебби Тейлор, которая последние 10 лет питается только чипсами...
3. Building Your Brain / Формирование мозга
О развитие мозга от рождения до совершеннолетия. Мы увидим девочку в возрасте одного года, Анжелину Мессинхем, страдающую редким заболеванием - болезнью Стерджа-Вебера. Врачам пришлось удалить ей половину мозга. Узнаем, как учатся видеть под водой мокены, группа цыган из Австронезии. А также узнаем, какие изменения происходят в головном мозге и почему подростки склонны к риску и непродуманным, с точки зрения взрослых, поступкам.
4. Hostile World / Враждебный мир
Майкл Мосли рассказывает об эффективных способах защиты, которые использует наше тело против враждебного мира, где солнечный свет разрушает наше ДНК и каждый вдох содержит микробы, которые могут убить. Мы познакомимся с чемпионом в одном из самых опасных опасных видов спорта, прыжкам через быка, узнаем, почему работа велокурьера так опасна и как была проведена успешная операция по пересадке целой конечности...


Уникальный идентификатор : 199300512191701069405944633946398445089 (0x95EFE1E7563F7365AF0AE1E9892ECE21)
Полное имя : C:\Documents and Settings\Admin\Рабочий стол\торы\Inside.the.Human.Body.2011.720p.Blu_ray.x264.Rus.Eng\Inside.the.Human.Body.E1.Creation.2011.720p.Blu_ray.x264.Rus.Eng.mkv
Формат : Matroska
Размер файла : 2,47 Гбайт
Продолжительность : 50 м.
Общий поток : 7075 Кбит/сек
Название фильма : Inside the Human Body - E1. Creation (2011)
Дата кодирования : UTC 2012-06-08 10:25:56
Программа кодирования : mkvmerge v4.0.0 ('The Stars were mine') сборка от Jun 6 2010 16:18:42
Библиотека кодирования : libebml v1.0.0 + libmatroska v1.0.0

Видео
Идентификатор : 1
Формат : AVC
Формат/Информация : Advanced Video Codec
Профиль формата : High@L4.1
Параметр CABAC формата : Да
Параметр ReFrames формата : 7 кадров
Параметры GOP формата : M=1, N=15
Идентификатор кодека : V_MPEG4/ISO/AVC
Продолжительность : 50 м.
Битрейт : 5232 Кбит/сек
Ширина : 1280 пикс.
Высота : 720 пикс.
Соотношение сторон : 16:9
Частота кадров : 25,000 кадр/сек
Цветовое пространство : YUV
Подвыборка цветности : 4:2:0
Битовая глубина : 8 бит
Тип развёртки : Прогрессивная
Бит/(Пиксели*Кадры) : 0.227
Размер потока : 1,83 Гбайт (74%)
Библиотека кодирования : x264 core 120 r2164 da19765
Настройки программы : cabac=1 / ref=7 / deblock=1:-3:-3 / analyse=0x3:0x113 / me=umh / subme=10 / psy=1 / psy_rd=1.00:0.00 / mixed_ref=1 / me_range=24 / chroma_me=1 / trellis=2 / 8x8dct=1 / cqm=0 / deadzone=21,11 / fast_pskip=0 / chroma_qp_offset=-2 / threads=6 / sliced_threads=0 / nr=0 / decimate=0 / interlaced=0 / bluray_compat=0 / constrained_intra=0 / bframes=7 / b_pyramid=2 / b_adapt=2 / b_bias=0 / direct=3 / weightb=1 / open_gop=0 / weightp=2 / keyint=250 / keyint_min=25 / scenecut=40 / intra_refresh=0 / rc_lookahead=50 / rc=crf / mbtree=1 / crf=18.0 / qcomp=0.80 / qpmin=10 / qpmax=51 / qpstep=4 / vbv_maxrate=50000 / vbv_bufsize=62500 / crf_max=0.0 / nal_hrd=none / ip_ratio=1.40 / aq=1:0.80
Язык : English

Аудио #1
Идентификатор : 2
Формат : AC-3
Формат/Информация : Audio Coding 3
Расширение режима : CM (complete main)
Идентификатор кодека : A_AC3
Продолжительность : 50 м.
Вид битрейта : Постоянный
Битрейт : 192 Кбит/сек
Каналы : 2 канала
Расположение каналов : Front: L R
Частота : 48,0 КГц
Битовая глубина : 16 бит
Метод сжатия : С потерями
Размер потока : 68,7 Мбайт (3%)
Язык : Russian

Аудио #2
Идентификатор : 3
Формат : DTS
Формат/Информация : Digital Theater Systems
Идентификатор кодека : A_DTS
Продолжительность : 50 м.
Вид битрейта : Постоянный
Битрейт : 1510 Кбит/сек
Каналы : 2 канала
Расположение каналов : Front: L R
Частота : 48,0 КГц
Битовая глубина : 24 бит
Метод сжатия : С потерями
Размер потока : 540 Мбайт (21%)
Язык : English

Меню
00:00:00.000 : :Chapter 1 00:00:00
00:10:40.000 : :Chapter 2 00:10:40
00:19:05.000 : :Chapter 3 00:19:05
00:30:20.000 : :Chapter 4 00:30:20
00:39:48.000 : :Chapter 5 00:39:48
00:49:32.000 : :Chapter 6 00:49:32

pb.wtf



Скачать Внутри человеческого тела через торрент http://i25.fastpic.ru/big/2012/0608/83/ca9aecebbc9b5e8ad48c696ed4927683.jpg Скачать фильм Внутри человеческого тела через торрент бесплантно в хорошем качестве Описание: Популярный минисериал, снятый при помощи самых современных технологий и рассказывающий о некоторых важнейших процессах, ... 4.9 10 8
Info! Золотая раздача, скачанное не засчитывается.
Торрент: Зарегистрирован [2012-08-09 18:28] · скачан: 201 раз
Статус: √ проверено
Размер: 9.36 GB
Как cкачать? Как скачать Внутри человеческого тела через торрент | UTorrent

28-11-2019 20:33  

Отключить всю рекламу на сайте

    Дорогой пользователь! Огромная просьба, поблагодарите релизера, оцените раздачу и оставьте свои комментарий, если Вы скачали Внутри человеческого тела через торрент бесплатно! Внесите свою лепту в развитие PiratBit!
    Комментировать посты могут только пользователи прошедшие не сложную регистрацию
    Показать сообщения:    

    Внутри человеческого тела через торрент
    Скачать бесплатно Внутри человеческого тела
    Внутри человеческого тела скачать торрент
    Внутри человеческого тела смотреть онлайн
    Cкачать фильм Внутри человеческого тела бесплатно
    Внутри человеческого тела скачать торрент в хорошем качестве
    Внутри человеческого тела смотреть онлайн бесплатно в хорошем качестве


    Вы не можете начинать темы
    Вы не можете отвечать на сообщения
    Вы не можете редактировать свои сообщения
    Вы не можете удалять свои сообщения
    Вы не можете голосовать в опросах
    Вы не можете прикреплять файлы к сообщениям
    Вы можете скачивать файлы