2 сезон

iTunes

MVO

1

2 сезон

iTunes

iTunes

1 сезон

RePack

30

Новинка

ВАЖНО

ИГРА 18+

pack

RePack

MK11
pack

Легкие деньги

RePack

jed

RePack

fifa19

RePack

RDR2

RePack

NEED FOR SPEED™ PAYBACK

4 сезон

9 сезон

Бесстыжие 9 сезон

Все сериалы

все сериалы на PB.wtf

RePack

FAR CRY 5

Anonymous, доброй ночи, мы не успеваем собрать деньги на оплату серверов за декабрь и январь, помогите нам пожалуйста в это трудное время. В качестве благодарности мы отключим Вам всю рекламу на сайте (укажите свой ник в строку Ваше имя)!

×
  
Magnet ссылка

Блудливая Калифорния / Californication / Сезон: 5 / Серии: 1-12 (12) (Том Капинос) [2012 г., драма, комедия, BDRip (720p), LostFilm] pb.wtf

Блудливая Калифорния через торрент pb.wtf

Размер: 9.3 GB | Добавлен: 8 лет 5 мес. назад | Торрент скачан:167 раз
Скачать  

09-08-2012 21:19 Блудливая Калифорния Скачать торрент  

Блудливая Калифорния / Californication

Год выпуска: 2012
Страна: США
Жанр: драма, комедия
Продолжительность: ~ 00:29:00 x 12
Перевод: Профессиональный (многоголосый) (Лицензия)

Режиссер: Дэвид Фон Энкен, Стивен Хопкинс, Кен Уиттингэм
Продюссер: Том Капинос, Илди Модрович, Эрик Вейнберг
Сценарий: Том Капинос, Джина Фатторе, Гэбриел Рот

Мировой рейтинг IMDB 8.30 (42 665)


В ролях: Дэвид Духовны, Наташа МакЭлхоун, Мадлен Мартин, Эван Хэндлер, Памела Адлон, Мадлен Зима, Стивен Тоболовски, Каллум Кит Ренни, Рэйчел Майнер, Джейсон Бех, Борис Шувалов, Ольга Зубкова, Соня Реснянская, Никита Прозоровский, Любовь Германова

Описание: Талантливый и некогда известный писатель Хэнк Муди переживает творческий кризис. Отсутствие вдохновения он с лихвой компенсирует алкоголем, наркотиками и красивыми женщинами. Подкупающая прямота, чувство юмора и яркая харизма привлекают к нему сердца калифорнийских красавиц. Но его сердце занято — он любящий отец своей 13-летней дочери, и всё ещё влюблён в её маму — свою бывшую подружку...

Качество: BDRip (720p)
Формат: MKV
Видео кодек: H.26x
Аудио кодек: AC3
Видео: AVC(H.264) , 1280x720, 23.976 fps, 2.7 mbps, 0.123 b/p
Аудио#1: AC3, 48 KHz, 6 ch, 384 kbps [Русский]
Аудио#2: AC3, 48 KHz, 6 ch, 384 kbps [Английский]

General
Unique ID : 195587919822840629264719953466771401434 (0x9324DCF7B535C69C8C0656A0A7F86ADA)
Complete name : Californication.S05.HDTV.720p.Rus.MVO.Eng.Sub\Californication.S05E01.HDTV.720p.Rus.MVO.Eng.Sub.mkv
Format : Matroska
Format version : Version 2
File size : 745 MiB
Duration : 29mn 27s
Overall bit rate : 3 536 Kbps
Movie name : Californication S05E01 JFK to LAX [Rus - MVO LostFilm | Eng | sub]
Encoded date : UTC 2012-01-12 16:01:24
Writing application : mkvmerge v4.9.1 ('Ich will') сборка от Jul 11 2011 23:53:15
Writing library : libebml v1.2.1 + libmatroska v1.1.1
Video
ID : 1
Format : AVC
Format/Info : Advanced Video Codec
Format profile : High@L4.0
Format settings, CABAC : Yes
Format settings, ReFrames : 9 frames
Codec ID : V_MPEG4/ISO/AVC
Duration : 29mn 27s
Bit rate : 2 698 Kbps
Width : 1 280 pixels
Height : 712 pixels
Display aspect ratio : 16:9
Frame rate : 23.976 fps
Color space : YUV
Chroma subsampling : 4:2:0
Bit depth : 8 bits
Scan type : Progressive
Bits/(Pixel*Frame) : 0.123
Stream size : 568 MiB (76%)
Title : Californication S05E01 JFK to LAX
Writing library : x264 core 116 r2074 2641b9e
Encoding settings : cabac=1 / ref=9 / deblock=1:0:0 / analyse=0x3:0x133 / me=umh / subme=10 / psy=1 / psy_rd=1.00:0.00 / mixed_ref=1 / me_range=24 / chroma_me=1 / trellis=2 / 8x8dct=1 / cqm=0 / deadzone=21,11 / fast_pskip=0 / chroma_qp_offset=-2 / threads=6 / sliced_threads=0 / nr=0 / decimate=0 / interlaced=0 / bluray_compat=0 / constrained_intra=0 / bframes=6 / b_pyramid=2 / b_adapt=2 / b_bias=0 / direct=3 / weightb=1 / open_gop=0 / weightp=2 / keyint=250 / keyint_min=23 / scenecut=40 / intra_refresh=0 / rc=crf / mbtree=0 / crf=18.8 / qcomp=0.60 / qpmin=0 / qpmax=69 / qpstep=4 / ip_ratio=1.40 / pb_ratio=1.30 / aq=1:0.80
Language : English
Default : Yes
Forced : No
Audio #1
ID : 2
Format : AC-3
Format/Info : Audio Coding 3
Mode extension : CM (complete main)
Codec ID : A_AC3
Duration : 29mn 27s
Bit rate mode : Constant
Bit rate : 384 Kbps
Channel(s) : 6 channels
Channel positions : Front: L C R, Side: L R, LFE
Sampling rate : 48.0 KHz
Bit depth : 16 bits
Compression mode : Lossy
Stream size : 80.9 MiB (11%)
Title : LostFilm @ AC3 5.1
Language : Russian
Default : Yes
Forced : No
Audio #2
ID : 3
Format : AC-3
Format/Info : Audio Coding 3
Mode extension : CM (complete main)
Codec ID : A_AC3
Duration : 29mn 27s
Bit rate mode : Constant
Bit rate : 384 Kbps
Channel(s) : 6 channels
Channel positions : Front: L C R, Side: L R, LFE
Sampling rate : 48.0 KHz
Bit depth : 16 bits
Compression mode : Lossy
Delay relative to video : 29ms
Stream size : 80.9 MiB (11%)
Title : Original @ AC3 5.1
Language : English
Default : No
Forced : No
Text #1
ID : 4
Format : UTF-8
Codec ID : S_TEXT/UTF8
Codec ID/Info : UTF-8 Plain Text
Title : Disabled
Language : Russian
Default : Yes
Forced : No
Text #2
ID : 5
Format : UTF-8
Codec ID : S_TEXT/UTF8
Codec ID/Info : UTF-8 Plain Text
Title : Notabenoid
Language : Russian
Default : No
Forced : No
Text #3
ID : 6
Format : UTF-8
Codec ID : S_TEXT/UTF8
Codec ID/Info : UTF-8 Plain Text
Title : Original
Language : English
Default : No
Forced : No

pb.wtf



Скачать Блудливая Калифорния через торрент http://i27.fastpic.ru/big/2012/0105/89/8dd5474e93ff2fa47a1756d76c053189.jpg Скачать фильм Блудливая Калифорния через торрент бесплантно в хорошем качестве Описание: Талантливый и некогда известный писатель Хэнк Муди переживает творческий кризис. Отсутствие вдохновения он с лихвой компенсирует ... 5 10 6
Info! Золотая раздача, скачанное не засчитывается.
Торрент: Зарегистрирован [2012-08-09 21:19] · скачан: 167 раз
Статус: √ проверено
Размер: 9.3 GB
Как cкачать? Как скачать Блудливая Калифорния через торрент | UTorrent

28-11-2019 20:33  

Отключить всю рекламу на сайте

10-08-2012 09:29 Блудливая Калифорния Скачать торрент  

от кого перевод?pb.wtf



10-08-2012 19:28 Блудливая Калифорния Скачать торрент  

baraban09 писал(а):

от кого перевод?

LostFilmpb.wtf



11-10-2012 08:47 Блудливая Калифорния Скачать торрент  

Тут все серии 5го сезона ? )pb.wtf



    Дорогой пользователь! Огромная просьба, поблагодарите релизера, оцените раздачу и оставьте свои комментарий, если Вы скачали Блудливая Калифорния через торрент бесплатно! Внесите свою лепту в развитие PiratBit!
    Комментировать посты могут только пользователи прошедшие не сложную регистрацию
    Показать сообщения:    

    Блудливая Калифорния через торрент
    Скачать бесплатно Блудливая Калифорния
    Блудливая Калифорния скачать торрент
    Блудливая Калифорния смотреть онлайн
    Cкачать фильм Блудливая Калифорния бесплатно
    Блудливая Калифорния скачать торрент в хорошем качестве
    Блудливая Калифорния смотреть онлайн бесплатно в хорошем качестве


    Вы не можете начинать темы
    Вы не можете отвечать на сообщения
    Вы не можете редактировать свои сообщения
    Вы не можете удалять свои сообщения
    Вы не можете голосовать в опросах
    Вы не можете прикреплять файлы к сообщениям
    Вы можете скачивать файлы