Ссылка на приватное зеркало нашего сайта всего за 1$. Внимание количество ограничено!!!

2 сезон

iTunes

1 сезон

1

iTunes

iTunes

iTunes

1 сезон

RePack

30

ИГРА 18+

pack

ВАЖНО

!!Акция!!

Alien_RageХит недели

RePack

MK11
pack

Забери бонус

RePack

jed

!!Акция!!

Alien_Rage

RePack

fifa19

RePack

Assassins Creed: Odyssey

RePack

NEED FOR SPEED™ PAYBACK

4 сезон

9 сезон

Бесстыжие 9 сезон

Все сериалы

все сериалы на PB.wtf

RePack

FAR CRY 5
  

Угон самолета / Hijacked (Брэндон Натт ) [2012 г., Боевик, триллер, BDRip (720p)] Любительский (двухголосый) pb.wtf

Угон самолета через торрент pb.wtf

Размер: 3.78 GB | Добавлен: 8 лет 2 мес. назад | Торрент скачан:45 раз
Скачать  

10-08-2012 11:06 Угон самолета Скачать торрент  

Угон самолета / Hijacked Год выпуска: 2012
Страна: США, NuttHouse Moving Pictures Company
Жанр: Боевик, триллер
Продолжительность: 01:30:16
Перевод: Любительский (двухголосый) [den904 & DeadSno]
Cубтитры: нет
Режиссер: Брэндон Натт
В ролях: Доминик Пурселл, Винни Джонс, Джина Филипс, Рэнди Кутюр, Крэйг Фэйрбрасс, Тиффани Дюпон, Холт МакКэллани, Уилл Бейнбринк, Эшли Кусато, Джэй Хьюджули. Описание: Планы специального агента Росса (Randy Couture) по примерению с его экс-женой разрушаются, когда она поднимается на борт частного самолета, который является целью угонщиков. Росс следит за ними, и не имея времени для информирования своей команды и подвергая себя риску, он проникает на борт самолета для того, чтобы спасти любовь своей жизни...


[font="Georgia"]Качество: BDRip (720p)
Формат: MKV
Видео кодек: H.264
Аудио кодек: АС3, DTS
Видео: x264; 1280x720 ,(16:9), 4047 Кбит/сек, 23.976 кадр/сек, 0.183 bit/pixel
Аудио 1: АС3, 448 kb/s (6 ch), 48 kHz - Любительский двухголосый
Аудио 2: DTS, 1510 kb/s (6 ch), 48 kHz - Original
Уникальный идентификатор : 204057114180963935871643784139745641835 (0x9983F87CF40CDBCE90FF7E34842DC56B)
Полное имя : F:\ФИЛЬМЫ ТОРРЕНТА\Hijacked.2012.BluRay.720p.Rus.Eng.x264.Goliaf.TV-CHD.mkv
Формат : Matroska
Версия формата : Version 2
Размер файла : 3,78 Гбайт
Продолжительность : 1 ч. 30 м.
Общий поток : 6000 Кбит/сек
Дата кодирования : UTC 2012-08-10 09:43:52
Программа кодирования : mkvmerge v5.4.0 ('Piper') built on Mar 10 2012 13:34:39
Библиотека кодирования : libebml v1.2.3 + libmatroska v1.3.0

Видео
Идентификатор : 1
Формат : AVC
Формат/Информация : Advanced Video Codec
Профиль формата : High@L4.1
Параметр CABAC формата : Да
Параметр ReFrames формата : 9 кадров
Идентификатор кодека : V_MPEG4/ISO/AVC
Продолжительность : 1 ч. 30 м.
Битрейт : 4047 Кбит/сек
Ширина : 1280 пикселей
Высота : 720 пикселей
Соотношение сторон : 16:9
Частота кадров : 23,976 кадра/сек
Цветовое пространство : YUV
Субдискретизация насыщенности : 4:2:0
Битовая глубина : 8 бит
Тип развёртки : Прогрессивная
Бит/(Пиксели*Кадры) : 0.183
Размер потока : 2,47 Гбайт (65%)
Библиотека кодирования : x264 core 124 r2197 69a0443
Настройки программы : cabac=1 / ref=9 / deblock=1:-3:-3 / analyse=0x3:0x113 / me=umh / subme=10 / psy=1 / psy_rd=1.10:0.15 / mixed_ref=1 / me_range=32 / chroma_me=1 / trellis=2 / 8x8dct=1 / cqm=0 / deadzone=21,11 / fast_pskip=0 / chroma_qp_offset=-2 / threads=12 / sliced_threads=0 / nr=0 / decimate=1 / interlaced=0 / bluray_compat=0 / constrained_intra=0 / bframes=6 / b_pyramid=2 / b_adapt=2 / b_bias=0 / direct=3 / weightb=1 / open_gop=0 / weightp=2 / keyint=250 / keyint_min=23 / scenecut=40 / intra_refresh=0 / rc_lookahead=60 / rc=2pass / mbtree=0 / bitrate=4047 / ratetol=1.0 / qcomp=0.60 / qpmin=0 / qpmax=69 / qpstep=4 / cplxblur=20.0 / qblur=0.5 / vbv_maxrate=40000 / vbv_bufsize=30000 / nal_hrd=none / ip_ratio=1.40 / pb_ratio=1.30 / aq=1:0.80
Язык : English

Аудио #1
Идентификатор : 2
Формат : AC-3
Формат/Информация : Audio Coding 3
Расширение режима : CM (complete main)
Идентификатор кодека : A_AC3
Продолжительность : 1 ч. 30 м.
Вид битрейта : Постоянный
Битрейт : 448 Кбит/сек
Каналы : 6 каналов
Расположение каналов : Front: L C R, Side: L R, LFE
Частота : 48,0 КГц
Битовая глубина : 16 бит
Метод сжатия : С потерями
Размер потока : 289 Мбайт (7%)
Язык : Russian

Аудио #2
Идентификатор : 3
Формат : DTS
Формат/Информация : Digital Theater Systems
Идентификатор кодека : A_DTS
Продолжительность : 1 ч. 30 м.
Вид битрейта : Постоянный
Битрейт : 1510 Кбит/сек
Каналы : 6 каналов
Расположение каналов : Front: L C R, Side: L R, LFE
Частота : 48,0 КГц
Битовая глубина : 24 бит
Метод сжатия : С потерями
Размер потока : 975 Мбайт (25%)
Заголовок : English DTS-HDMA CORE 5.1CH @ 1509 kbps
Язык : English

pb.wtf



Скачать Угон самолета через торрент http://4.firepic.org/4/images/2012-08/10/sk5xboxb3zd6.jpg Скачать фильм Угон самолета через торрент бесплантно в хорошем качестве Описание: Планы специального агента Росса (Randy Couture) по примерению с его экс-женой разрушаются, когда она поднимается на борт частного ... 5 10 2
Info! Золотая раздача, скачанное не засчитывается.
Торрент: Зарегистрирован [2012-08-10 13:05] · скачан: 45 раз
Статус: T временная
Размер: 3.78 GB
Как cкачать? Как скачать Угон самолета через торрент | qTorrent

% Раздел Тема Автор DL S | L
Фильмы до 2000 г. [ 938 MB ] Угон самолёта: Рейс 285 / Hijacked: Flight 285 [1996 DVDRip] [AVO] killermax2013 Скачать
1 | 0

28-11-2019 20:33  

Отключить всю рекламу на сайте

    Дорогой пользователь! Огромная просьба, поблагодарите релизера, оцените раздачу и оставьте свои комментарий, если Вы скачали Угон самолета через торрент бесплатно! Внесите свою лепту в развитие PiratBit!
    Комментировать посты могут только пользователи прошедшие не сложную регистрацию
    Показать сообщения:    

    Угон самолета через торрент
    Скачать бесплатно Угон самолета
    Угон самолета скачать торрент
    Угон самолета смотреть онлайн
    Cкачать фильм Угон самолета бесплатно
    Угон самолета скачать торрент в хорошем качестве
    Угон самолета смотреть онлайн бесплатно в хорошем качестве


    Вы не можете начинать темы
    Вы не можете отвечать на сообщения
    Вы не можете редактировать свои сообщения
    Вы не можете удалять свои сообщения
    Вы не можете голосовать в опросах
    Вы не можете прикреплять файлы к сообщениям
    Вы можете скачивать файлы