Ссылка на приватное зеркало нашего сайта всего за 1$. Внимание количество ограничено!!!

2 сезон

iTunes

1 сезон

1

iTunes

iTunes

iTunes

1 сезон

RePack

30

ИГРА 18+

pack

ВАЖНО

!!Акция!!

Alien_RageХит недели

RePack

MK11
pack

Забери бонус

RePack

jed

!!Акция!!

Alien_Rage

RePack

fifa19

RePack

Assassins Creed: Odyssey

RePack

NEED FOR SPEED™ PAYBACK

4 сезон

9 сезон

Бесстыжие 9 сезон

Все сериалы

все сериалы на PB.wtf

RePack

FAR CRY 5
  

Неглубокая могила / Shallow Grave (Дэнни Бойл / Danny Boyle) [1994, триллер, криминал, драма, комедия, BDRip 1080p]DVO + 2xMVO + AVO + Comm + Original + Sub (Rus, Eng) pb.wtf

Неглубокая могила через торрент pb.wtf

Размер: 15.95 GB | Добавлен: 8 лет 2 мес. назад | Торрент скачан:16 раз
Скачать  

10-08-2012 11:24 Неглубокая могила Скачать торрент  

Неглубокая могила / Shallow Grave
Год выпуска: 1994
Страна: Великобритания
Жанр: триллер, криминал
Продолжительность: 01:32:51
Перевод: Профессиональный (многоголосый)
Режиссер: Дэнни Бойл
Продюссер: Эндрю МакДональд, Аллан Скотт
Сценарий: Джон Ходж
Бюджет: $2 500 000
Премьера в мире: 16 мая 1994
лицам до 17 лет обязательно присутствие взрослого
Мировой рейтинг IMDB 7.40 (28 681)

В ролях: Юэн МакГрегор, Кристофер Экклстон, Керри Фокс, Кен Стотт, Кит Аллен, Колин МакКреди, Виктория Нэйрн, Гари Льюис, Джин Мэри Коффи, Питер Муллан
Описание: В квартире трех сумасбродных молодых людей поселился замечательный сосед, оставивший после себя в наследство свое разлагающееся тело и чемодан, полный денег. Друзья чемодан решают оставить себе, а от трупа просто избавиться. Труп оказался не последний, а у денег нашлись и другие хозяева, которые были настроены их вернуть любой ценой.
Качество: BDRip (1080p)
Формат: MKV
Видео кодек: H.264x
Аудио кодек: AC3, FLAC
Видео: AVC; 1920x1040 (16:9); 21000 Kbps; 23,976 fps; 0,439 bpp
Аудио №1: Russian
; FLAC; 48.0 KHz; 24 bit; 1330 kbps; VBR; 2 ch |Профессиональный (двухголосый, закадровый), Екатеринбург Арт|
текcт читали: Михаил Тихонов и Наталья Казначеева
Аудио №2: Russian; AC3; 48.0 KHz; 192 Kbps; CBR; 2 ch |Профессиональный (многоголосый, закадровый), Премьер Видео| текст читали: Алексей Борзунов, Андрей Градов + женщина
Аудио №3: Russian; AC3; 48.0 KHz; 192 Kbps; CBR; 2 ch |Профессиональный (многоголосый, закадровый), Киномания (?)|
Аудио №4: Russian; AC3; 48.0 KHz; 192 Kbps; CBR; 2 ch |Авторский (Иванов Михаил)|
Аудио №5: English; FLAC; 48.0 KHz; 24 bit; 1315 kbps; VBR; 2 ch |Оригинал|
Аудио №6: English; AC3; 48.0 KHz; 192 Kbps; CBR; 2 ch |Commentary with director Danny Boyle|
Аудио №7: English; AC3; 48.0 KHz; 192 Kbps; CBR; 2 ch |Commentary with screenwriter John Hodge and producer Andrew Macdonald| *
Субтитры №1: Russian
Субтитры №2: English; Criterion
Субтитры №3: English; UK


Общее
Уникальный идентификатор : 235460888831210456574472612221889675271 (0xB1241E1E8541049E808E7C6EDB760007)
Полное имя : C:\Documents and Settings\Admin\Рабочий стол\торы\Shallow.Grave.1994.1080p.Criterion.Collection.BluRay.4xRUS.ENG.Com-HDChina.mkv
Формат : Matroska
Размер файла : 16,0 Гбайт
Продолжительность : 1 ч. 32 м.
Общий поток : 24,6 Мбит/сек
Дата кодирования : UTC 2012-06-28 07:18:00
Программа кодирования : mkvmerge v5.2.1 ('A Far Off Place') built on Jan 2 2012 23:21:10
Библиотека кодирования : libebml v1.2.3 + libmatroska v1.3.0

Видео
Идентификатор : 1
Формат : AVC
Формат/Информация : Advanced Video Codec
Профиль формата : High@L4.1
Параметр CABAC формата : Да
Параметр ReFrames формата : 4 кадра
Идентификатор кодека : V_MPEG4/ISO/AVC
Продолжительность : 1 ч. 32 м.
Номинальный битрейт : 21,0 Мбит/сек
Ширина : 1920 пикс.
Высота : 1040 пикс.
Соотношение сторон : 16:9
Частота кадров : 23,976 кадр/сек
Цветовое пространство : YUV
Подвыборка цветности : 4:2:0
Битовая глубина : 8 бит
Тип развёртки : Прогрессивная
Бит/(Пиксели*Кадры) : 0.439
Библиотека кодирования : x264 core 125 r2200 999b753
Настройки программы : cabac=1 / ref=4 / deblock=1:-3:-3 / analyse=0x3:0x113 / me=tesa / subme=11 / psy=1 / psy_rd=1.10:0.00 / mixed_ref=1 / me_range=16 / chroma_me=1 / trellis=2 / 8x8dct=1 / cqm=0 / deadzone=21,11 / fast_pskip=0 / chroma_qp_offset=-2 / threads=18 / lookahead_threads=3 / sliced_threads=0 / nr=0 / decimate=0 / interlaced=0 / bluray_compat=0 / constrained_intra=0 / bframes=9 / b_pyramid=2 / b_adapt=2 / b_bias=0 / direct=3 / weightb=1 / open_gop=0 / weightp=2 / keyint=240 / keyint_min=24 / scenecut=40 / intra_refresh=0 / rc_lookahead=240 / rc=2pass / mbtree=1 / bitrate=21000 / ratetol=1.0 / qcomp=0.70 / qpmin=0 / qpmax=69 / qpstep=4 / cplxblur=20.0 / qblur=0.5 / ip_ratio=1.40 / aq=1:1.05
Язык : English

Аудио #1
Идентификатор : 2
Формат : FLAC
Формат/Информация : Free Lossless Audio Codec
Идентификатор кодека : A_FLAC
Продолжительность : 1 ч. 32 м.
Вид битрейта : Переменный
Каналы : 2 канала
Частота : 48,0 КГц
Битовая глубина : 24 бит
Заголовок : DVO (EA)
Библиотека кодирования : libFLAC 1.2.1 (UTC 2007-09-17)
Язык : Russian

Аудио #2
Идентификатор : 3
Формат : AC-3
Формат/Информация : Audio Coding 3
Расширение режима : CM (complete main)
Идентификатор кодека : A_AC3
Продолжительность : 1 ч. 32 м.
Вид битрейта : Постоянный
Битрейт : 192 Кбит/сек
Каналы : 2 канала
Расположение каналов : Front: L R
Частота : 48,0 КГц
Битовая глубина : 16 бит
Метод сжатия : С потерями
Размер потока : 128 Мбайт (1%)
Заголовок : MVO (Premier)
Язык : Russian

Аудио #3
Идентификатор : 4
Формат : AC-3
Формат/Информация : Audio Coding 3
Расширение режима : CM (complete main)
Идентификатор кодека : A_AC3
Продолжительность : 1 ч. 32 м.
Вид битрейта : Постоянный
Битрейт : 192 Кбит/сек
Каналы : 2 канала
Расположение каналов : Front: L R
Частота : 48,0 КГц
Битовая глубина : 16 бит
Метод сжатия : С потерями
Размер потока : 128 Мбайт (1%)
Заголовок : MVO (Kinomania) #
Язык : Russian

Аудио #4
Идентификатор : 5
Формат : AC-3
Формат/Информация : Audio Coding 3
Расширение режима : CM (complete main)
Идентификатор кодека : A_AC3
Продолжительность : 1 ч. 32 м.
Вид битрейта : Постоянный
Битрейт : 192 Кбит/сек
Каналы : 2 канала
Расположение каналов : Front: L R
Частота : 48,0 КГц
Битовая глубина : 16 бит
Метод сжатия : С потерями
Размер потока : 128 Мбайт (1%)
Заголовок : AVO (Ivanov)
Язык : Russian

Аудио #5
Идентификатор : 6
Формат : FLAC
Формат/Информация : Free Lossless Audio Codec
Идентификатор кодека : A_FLAC
Продолжительность : 1 ч. 32 м.
Вид битрейта : Переменный
Каналы : 2 канала
Частота : 48,0 КГц
Битовая глубина : 24 бит
Заголовок : Original
Библиотека кодирования : libFLAC 1.2.1 (UTC 2007-09-17)
Язык : English

Аудио #6
Идентификатор : 7
Формат : AC-3
Формат/Информация : Audio Coding 3
Расширение режима : CM (complete main)
Идентификатор кодека : A_AC3
Продолжительность : 1 ч. 32 м.
Вид битрейта : Постоянный
Битрейт : 192 Кбит/сек
Каналы : 2 канала
Расположение каналов : Front: L R
Частота : 48,0 КГц
Битовая глубина : 16 бит
Метод сжатия : С потерями
Размер потока : 128 Мбайт (1%)
Заголовок : Commentary with director Danny Boyle
Язык : English

Аудио #7
Идентификатор : 8
Формат : AC-3
Формат/Информация : Audio Coding 3
Расширение режима : CM (complete main)
Идентификатор кодека : A_AC3
Продолжительность : 1 ч. 32 м.
Вид битрейта : Постоянный
Битрейт : 192 Кбит/сек
Каналы : 2 канала
Расположение каналов : Front: L R
Частота : 48,0 КГц
Битовая глубина : 16 бит
Метод сжатия : С потерями
Размер потока : 128 Мбайт (1%)
Заголовок : Commentary with screenwriter John Hodge and producer Andrew Macdonald
Язык : English

Текст #1
Идентификатор : 9
Формат : UTF-8
Идентификатор кодека : S_TEXT/UTF8
Идентификатор кодека/Информация : UTF-8 Plain Text
Язык : Russian

Текст #2
Идентификатор : 10
Формат : UTF-8
Идентификатор кодека : S_TEXT/UTF8
Идентификатор кодека/Информация : UTF-8 Plain Text
Заголовок : Criterion
Язык : English

Текст #3
Идентификатор : 11
Формат : UTF-8
Идентификатор кодека : S_TEXT/UTF8
Идентификатор кодека/Информация : UTF-8 Plain Text
Заголовок : UK
Язык : English

Меню
00:00:00.000 : en:"Not Today, thank you"
00:06:59.461 : en:Hugo
00:13:57.462 : en:Temptation
00:19:40.346 : en:No Human Angle
00:24:23.545 : en:"This Is It"
00:35:44.059 : en:Strip the Willow
00:41:47.797 : en:"Happiness is"
00:49:22.001 : en:The Loft
00:55:56.186 : en:"Alive, Dead. Dead, Alive"
01:04:13.099 : en:"In the Event of My Death"
01:14:19.872 : en:"Triple Corpse Horror"

pb.wtf



Скачать Неглубокая могила через торрент http://s019.radikal.ru/i632/1206/b4/481b4a79fe09.png Скачать фильм Неглубокая могила через торрент бесплантно в хорошем качестве Описание: В квартире трех сумасбродных молодых людей поселился замечательный сосед, оставивший после себя в наследство свое разлагающееся ... 5 10 1
Info! Золотая раздача, скачанное не засчитывается.
Торрент: Зарегистрирован [2012-08-10 11:24] · скачан: 16 раз
Статус: √ проверено
Размер: 15.95 GB
Как cкачать? Как скачать Неглубокая могила через торрент | qTorrent

% Раздел Тема Автор DL S | L
Фильмы (Blu-ray, BD-Remux, HDDVD) [ 27.71 GB ] Неглубокая могила / Shallow Grave [1994 BD Remux 1080p] 2xMVO+DVO+2xAVO bober100 Скачать
2 | 0
Фильмы до 2000 г. [ 1.87 GB ] Неглубокая могила / Shallow Grave [1994 . HDRip] MVO "Премьер Видео" Fantomas94 Скачать
1 | 0
Фильмы до 2000 г. [ 1.56 GB ] Неглубокая могила / Shallow Grave [1994 ... DVDRip] VintMosina Скачать
1 | 0

28-11-2019 20:33  

Отключить всю рекламу на сайте

10-08-2012 11:29 Неглубокая могила Скачать торрент  

pb.wtf



10-08-2012 11:58 Неглубокая могила Скачать торрент  

Сделал бы рип гектаров на 5 не больше..а ты растянул как в 3D :yu:pb.wtf



    Дорогой пользователь! Огромная просьба, поблагодарите релизера, оцените раздачу и оставьте свои комментарий, если Вы скачали Неглубокая могила через торрент бесплатно! Внесите свою лепту в развитие PiratBit!
    Комментировать посты могут только пользователи прошедшие не сложную регистрацию
    Показать сообщения:    

    Неглубокая могила через торрент
    Скачать бесплатно Неглубокая могила
    Неглубокая могила скачать торрент
    Неглубокая могила смотреть онлайн
    Cкачать фильм Неглубокая могила бесплатно
    Неглубокая могила скачать торрент в хорошем качестве
    Неглубокая могила смотреть онлайн бесплатно в хорошем качестве


    Вы не можете начинать темы
    Вы не можете отвечать на сообщения
    Вы не можете редактировать свои сообщения
    Вы не можете удалять свои сообщения
    Вы не можете голосовать в опросах
    Вы не можете прикреплять файлы к сообщениям
    Вы можете скачивать файлы