MEGA NEWS Получи личный уникальный адрес сайта и защити себя от блокировок. Внимание количество ограничено!!!

iTunes

1+1

iTunes

мы

iTunes

1

iTunes

Чернобыль

iTunes

Ральф против интернета

Лицензия

ПШазам

Лицензия

Игра престолов

Лицензия

30
pack

ВАЖНО

!!Акция!!

Alien_RageХит недели

RePack

Resident Evil 21

ИГРА 18+

pack

RePack

Metro:Exodus

!!Акция!!

Alien_Rage

RePack

fifa19

RePack

Assassins Creed: Odyssey

RePack

NEED FOR SPEED™ PAYBACK

3 сезон

9 сезон

Бесстыжие 9 сезон

Все сериалы

все сериалы на PB.wtf

RePack

FAR CRY 5
Ребята, катастрофически не хватает 1900р. для оплаты серверов за АВГУСТ (всвязи с блокировками трафик упал в 3 раза), 1-2р., выручайте.
  

Водный мир / Waterworld (Кевин Рейнольдс, Кевин Костнер) [1995 г., фантастика, боевик, приключения, DVDRip, Профессиональный (многоголосый)][Расширенная (режиссерская) версия / Extended Edition] pb.wtf

Скачать  

10-08-2012 17:27 Водный мир Скачать торрент  

Водный мир / Waterworld
Расширенная (режиссерская) версия / Extended Edition


Год выпуска: 1995
Страна: США / Universal Pictures, Licht, Mueller Film Corporation, Gordon Company, Davis Entertainment
Жанр: фантастика, боевик, приключения
Продолжительность: 02:56:03
Перевод: Профессиональный (многоголосый)

Режиссер: Кевин Рейнольдс, Кевин Костнер
Продюссер: Кевин Костнер, Джон Дэвис, Чарльз Гордон
Сценарий: Питер Рейдер, Дэвид Туи

Бюджет: $175 000 000
Премьера в мире: 28 июля 1995. США

Рейтинг PG-13 - Детям до 13 лет просмотр не желателен

Мировой рейтинг IMDB 5.90 (83 403)



В ролях: Кевин Костнер, Деннис Хоппер, Джинн Трипплхорн, Тина Мажорино, Майкл Джитер, Джек Блэк, Ким Коутс, Чайм Джирафи, Рик Авилес, Р.Д. Колл

Описание: В далеком будущем полярные снега растаяли, покрыв всю Землю водой. Авторы погружают нас в фантастический мир немногочисленных людей, живущих на воде, где самым дорогим являются пресная вода, земля, еда, сигареты и т. п.
«Коптильщики» убивают, грабят, обращают в рабство — используют двигатели внутреннего сгорания. Все остальные пытаются выжить, кто как может, а Кевин Костнер плавает сам по себе на своей фантастической лодке, но объединяет их всех одно — все они ищут остров.
В одной из колоний живут очень красивая женщина и девочка с татуировкой на спине. А татуировка эта — часть карты, на которой и указан этот остров. Естественно, за ней и охотятся «коптильщики»…

Доп. информация: На момент выхода картины «Водный мир» стал самым дорогим фильмом в истории, не учитывая инфляцию.

Качество: DVDRip
Формат: AVI
Видео кодек: XviD
Аудио кодек: MP3
Видео: 640 x 336 (1.905:1), 23,976 Fr/s; 1052 kbps
Аудио: 128 kb/s, 2 ch, 48000Hz





Format : AVI
Format/Info : Audio Video Interleave
File size : 1.46 GiB
Duration : 2h 56mn
Overall bit rate : 1 190 Kbps
Movie name : Vodnyy.Mir.1995.XviD.DVDRip.Ext
Writing application : VirtualDubMod 1.5.10.2 (build 2540/release)
Writing library : VirtualDubMod build 2540/release

Video
ID : 0
Format : MPEG-4 Visual
Format profile : Advanced Simple@L5
Format settings, BVOP : 2
Format settings, QPel : No
Format settings, GMC : No warppoints
Format settings, Matrix : Custom
Muxing mode : Packed bitstream
Codec ID : XVID
Codec ID/Hint : XviD
Duration : 2h 56mn
Bit rate : 1 052 Kbps
Width : 640 pixels
Height : 336 pixels
Display aspect ratio : 1.905
Frame rate : 23.976 fps
Color space : YUV
Chroma subsampling : 4:2:0
Bit depth : 8 bits
Scan type : Progressive
Compression mode : Lossy
Bits/(Pixel*Frame) : 0.204
Stream size : 1.29 GiB (88%)
Writing library : XviD 1.2.1 (UTC 2008-12-04)

Audio
ID : 1
Format : MPEG Audio
Format version : Version 1
Format profile : Layer 3
Mode : Joint stereo
Mode extension : MS Stereo
Codec ID : 55
Codec ID/Hint : MP3
Duration : 2h 56mn
Bit rate mode : Constant
Bit rate : 128 Kbps
Channel(s) : 2 channels
Sampling rate : 48.0 KHz
Compression mode : Lossy
Stream size : 161 MiB (11%)
Alignment : Aligned on interleaves
Interleave, duration : 42 ms (1.00 video frame)
Interleave, preload duration : 504 ms
Writing library : LAME3.98r
Encoding settings : -m j -V 4 -q 2 -lowpass 17 -b 128

pb.wtf




>> Регистрируемся здесь <<






Отзывы и комментарии о схеме читаем и пишем здесь: ---> Отзывы и комментарии о схеме

Новые благодарочки в телеграм довольных пользователей:
скриншот   скриншот   скриншот   скриншот   скриншот

10-08-2012 18:36 Водный мир Скачать торрент  

Отличная фантастика, стоит внимания =) Спасиб.pb.wtf



10-08-2012 20:36 Водный мир Скачать торрент  

Самый лучший фильм пост апокалипсис)
Особенно здорово впечатлил аппаратик для перегонки мочи)
Смотрите не пожалеетеpb.wtf



    Дорогой пользователь! Огромная просьба, поблагодарите релизера, оцените раздачу и оставьте свои комментарий, если Вы скачали Водный мир через торрент бесплатно! Внесите свою лепту в развитие PiratBit!
    Комментировать посты могут только пользователи прошедшие не сложную регистрацию
    Показать сообщения:    

    Водный мир через торрент
    Скачать бесплатно Водный мир
    Водный мир скачать торрент
    Водный мир смотреть онлайн
    Cкачать фильм Водный мир бесплатно
    Водный мир скачать торрент в хорошем качестве
    Водный мир смотреть онлайн бесплатно в хорошем качестве


    Вы не можете начинать темы
    Вы не можете отвечать на сообщения
    Вы не можете редактировать свои сообщения
    Вы не можете удалять свои сообщения
    Вы не можете голосовать в опросах
    Вы не можете прикреплять файлы к сообщениям
    Вы можете скачивать файлы