Всегда рабочее зеркало без VPN и Proxy просто перед .vidak.icu напиши любое слово или цифру, Пример http://xsa6.vidak.icu

Лицензия

MVO

1 сезон

1

1 сезон

iTunes

1 сезон

13

1 сезон

Deluxe

pack

Рекомендуем

Repack

30

ВАЖНО

RePack

MK11

RePack

jed

RePack

fifa19

RePack

RDR2

RePack

NEED FOR SPEED™ PAYBACK

Кинопоиск HD

6 сезон

 Острые козырьки 6 сезон

Все сериалы

все сериалы на PB.wtf

RePack

FAR CRY 5
  
Magnet ссылка

Рейд / Serbuan maut (Гарет Эванс) [2011 г., Боевик, Триллер, Криминал, HDRip, DUB (лицензия)] pb.wtf

Рейд через торрент pb.wtf

Размер: 701 MB | Добавлен: 10 лет назад | Торрент скачан:596 раз
Смотреть онлайн Рейд | Скачать    Ребята, помогите собрать деньги на оплату серверов!!!

10-08-2012 23:38 Рейд Скачать торрент  

Рейд / Serbuan maut

Год выпуска: 2011
Страна: США, Индонезия / Pt. Merantau Films
Жанр: Боевик, Триллер, Криминал
Продолжительность: 01:40:40
Перевод: Дубляж (Лицензия)

Режиссер: Гарет Эванс

В ролях: Ико Ювайс, Джо Таслим, Дони Аламсях, Яян Рухьян, Пьер Грюно, Рэй Сахетапи, Тегар Сатрия, Ианг Дармаван, Эка «Пиранья» Рахмадия, Верди Солайман

Описание:
Отряд спецназовцев получает задание проникнуть в многоэтажный дом, расположенный в самом сердце трущоб Джакарты, и арестовать обосновавшегося там наркобарона, которого охраняет целая армия вооруженных до зубов головорезов. Операцию нужно провести без лишнего шума, но нелепая случайность нарушает планы служителей закона. Теперь бойцам негде спрятаться и некуда бежать. Перед ними 30 этажей ада, где смертью грозит каждый неверный шаг. Война по правилам кончилась. Выживает сильнейший!

Качество: HDRip
Формат: AVI
Видео кодек: XviD
Аудио кодек: MP3
Видео: XviD, 835 kb/s, 640x352, 23.976 fps
Аудио#1: 128 kb/s (2 ch), 48.0 KHz

Общее
Полное имя : D:\Торренты\ФИЛЬМЫ торента\Рейд.2011.HDRip.avi
Формат : AVI
Формат/Информация : Audio Video Interleave
Размер файла : 701 Мбайт
Продолжительность : 1 ч. 40 м.
Общий поток : 973 Кбит/сек
Программа кодирования : VirtualDubMod 1.5.10.2 (build 2540/release)
Библиотека кодирования : VirtualDubMod build 2540/release

Видео
Идентификатор : 0
Формат : MPEG-4 Visual
Профиль формата : Advanced [email protected]
Параметр BVOP формата : 1
Параметр QPel формата : Нет
Параметр GMC формата : Без точки перехода
Параметр матрицы формата : Default (H.263)
Идентификатор кодека : XVID
Идентификатор кодека/Подсказка : XviD
Продолжительность : 1 ч. 40 м.
Битрейт : 835 Кбит/сек
Ширина : 640 пикс.
Высота : 352 пикс.
Соотношение сторон : 16:9
Частота кадров : 24,000 кадр/сек
Цветовое пространство : YUV
Подвыборка цветности : 4:2:0
Битовая глубина : 8 бит
Тип развёртки : Прогрессивная
Метод сжатия : С потерями
Бит/(Пиксели*Кадры) : 0.154
Размер потока : 602 Мбайт (86%)
Библиотека кодирования : XviD 1.2.1 (UTC 2008-12-04)

Аудио
Идентификатор : 1
Формат : MPEG Audio
Версия формата : Version 1
Профиль формата : Layer 3
Идентификатор кодека : 55
Идентификатор кодека/Подсказка : MP3
Продолжительность : 1 ч. 40 м.
Вид битрейта : Постоянный
Битрейт : 128 Кбит/сек
Каналы : 2 канала
Частота : 48,0 КГц
Метод сжатия : С потерями
Размер потока : 92,2 Мбайт (13%)
Выравнивание : Соединение по промежуткам
Продолжительность промежутка : 42 мс. (1,00 видеокадр)
Время предзагрузки промежутка : 504 ms
Библиотека кодирования : LAME3.99r

pb.wtf



Скачать Рейд через торрент http://i40.fastpic.ru/big/2012/0811/e0/f8bf2b7e4abd3cb74ae2e8db3a9cf3e0.jpg Скачать, смотреть онлайн Рейд бесплантно в хорошем качестве Описание: Отряд спецназовцев получает задание проникнуть в многоэтажный дом, расположенный в самом сердце трущоб Джакарты, и арестовать ... 9.5 10 6
Info! Золотая раздача, скачанное не засчитывается.
Торрент: Зарегистрирован [2012-08-10 23:38] · скачан: 596 раз
Статус: √ проверено
Размер: 701 MB
Как cкачать? Как скачать Рейд через торрент | UTorrent

% Раздел Тема Автор DL S | L
Фильмы [HD 720p, 1080p] (Хороший звук DUB, MVO) [ 5.07 GB ] Рейд / Serbuan maut [2011 BDRip 720p by msltel] DUB 2 x AVO msltel Скачать
1 | 0
Фильмы [HD 720p, 1080p] (Хороший звук DUB, MVO) [ 14.55 GB ] Рейд / Serbuan maut [2011 BDRip 1080p by msltel] DUB 2 x AVO msltel Скачать
1 | 0
Фильмы [HD 720p, 1080p] (Хороший звук DUB, MVO) [ 3.97 GB ] Рейд / Serbuan maut [2011 BDRip 1080p HEVC ] Мичман37 Скачать
1 | 0
Фильмы 2011 [ 1.46 GB ] Рейд / Serbuan maut / 2011 / HDRip [ DUB лицензия] Twi7ter Скачать
1 | 0
Фильмы (Blu-ray, BD-Remux, HDDVD) [ 29.88 GB ] Рейд / The Raid: Redemption / Serbuan maut [2011 BD-Remux DUB ] Зайчина Скачать
1 | 0
Фильмы (DVD фильмы) [ 6.6 GB ] Рейд / Serbuan maut [2011 DVD9] R5 voovaz Скачать
1 | 0
Фильмы (HD 720p, 1080p) (48-60 fps) [ 12.65 GB ] Рейд / Serbuan maut [2011 Индонезия BDRip 1080p] DUB 60fps Ворон Скачать
1 | 0

28-11-2019 20:33  

Отключить вcю реклaмy на сайте

    Дорогой пользователь! Огромная просьба, поблагодарите релизера, оцените раздачу и оставьте свои комментарий, если Вы скачали Рейд через торрент бесплатно!
    Комментировать посты могут только пользователи прошедшие не сложную регистрацию
    Показать сообщения:    

    Рейд через торрент
    Скачать бесплатно Рейд
    Рейд скачать торрент
    Рейд смотреть онлайн
    Cкачать фильм Рейд бесплатно
    Рейд скачать торрент в хорошем качестве
    Рейд смотреть онлайн бесплатно в хорошем качестве


    Вы не можете начинать темы
    Вы не можете отвечать на сообщения
    Вы не можете редактировать свои сообщения
    Вы не можете удалять свои сообщения
    Вы не можете голосовать в опросах
    Вы не можете прикреплять файлы к сообщениям
    Вы можете скачивать файлы