Всегда рабочее зеркало без VPN и Proxy просто перед .vidak.icu напиши любое слово или цифру, Пример http://7jjx.vidak.icu

Лицензия

MVO

1 сезон

1

1 сезон

iTunes

1 сезон

13

1 сезон

Deluxe

pack

Рекомендуем

Repack

30

ВАЖНО

RePack

MK11

RePack

jed

RePack

fifa19

RePack

RDR2

RePack

NEED FOR SPEED™ PAYBACK

Кинопоиск HD

6 сезон

 Острые козырьки 6 сезон

Все сериалы

все сериалы на PB.wtf

RePack

FAR CRY 5
  
Magnet ссылка

Только не сейчас (Валерий Пендраковский, Юрий Рогозин) [2010 г., Мелодрама, DVDRip, Оригинал] pb.wtf

Только не сейчас через торрент pb.wtf

Размер: 1.28 GB | Добавлен: 10 лет назад | Торрент скачан:76 раз
Смотреть онлайн Только не сейчас | Скачать    Ребята, помогите собрать деньги на оплату серверов!!!

11-08-2012 13:51 Только не сейчас Скачать торрент  

Только не сейчас

Год выпуска: 2010
Страна: Россия, Польша
Жанр: Мелодрама
Продолжительность: 01:23:31
Перевод: Оригинал

Режиссер: Валерий Пендраковский, Юрий Рогозин

В ролях: Александр Домогаров мл., Магдалена Лампарская, Даниэль Ольбрыхский, Вячеслав Шалевич, Михаил Васьков, Егор Харламов, Роман Ладнев

Описание: Действие картины разворачивается в 1953 году в небольшом польском городке, где находится база советских войск. Служащий в этой части солдат Шура случайно знакомится с польской девушкой Эльзой, работающей на шоколадной фабрике. Он влюбляется в нее, и девушка, кажется, отвечает на его чувства взаимностью, но постоянно откладывает свидание, повторяя: «Только не сейчас». Вскоре между возлюбленными встают барьеры: для круга, в котором вращается возлюбленная советского солдата, человек из СССР — враг и оккупант…

Качество: DVDRip
Формат: AVI
Видео кодек: XviD
Аудио кодек: AC3
Видео: 704x368 (1.91:1), 25 fps, XviD build 50 ~1999 kbps avg, 0.31 bit/pixel
Аудио#1: 48 kHz, AC3 Dolby Digital, 2/0 (L,R) ch, ~192 kbps
Формат : AVI
Формат/Информация : Audio Video Interleave
Размер файла : 1,28 Гбайт
Продолжительность : 1 ч. 23 м.
Общий поток : 2202 Кбит/сек
Программа кодирования : VirtualDubMod 1.5.10.3 | www.virtualdub-fr.org || (build 2550/release)
Библиотека кодирования : VirtualDubMod build 2550/release

Видео
Идентификатор : 0
Формат : MPEG-4 Visual
Профиль формата : Advanced [email protected]
Параметр BVOP формата : 1
Параметр QPel формата : Нет
Параметр GMC формата : Без точки перехода
Параметр матрицы формата : Default (H.263)
Идентификатор кодека : XVID
Идентификатор кодека/Подсказка : XviD
Продолжительность : 1 ч. 23 м.
Битрейт : 2000 Кбит/сек
Ширина : 704 пикселя
Высота : 368 пикселей
Соотношение сторон : 1,913
Частота кадров : 25,000 кадров/сек
Цветовое пространство : YUV
Субдискретизация насыщенности : 4:2:0
Битовая глубина : 8 бит
Тип развёртки : Прогрессивная
Метод сжатия : С потерями
Бит/(Пиксели*Кадры) : 0.309
Размер потока : 1,17 Гбайт (91%)
Библиотека кодирования : XviD 1.2.1 (UTC 2008-12-04)

Аудио
Идентификатор : 1
Формат : AC-3
Формат/Информация : Audio Coding 3
Расширение режима : CM (complete main)
Параметр Endianness формата : Big
Идентификатор кодека : 2000
Продолжительность : 1 ч. 23 м.
Вид битрейта : Постоянный
Битрейт : 192 Кбит/сек
Каналы : 2 канала
Расположение каналов : Front: L R
Частота : 48,0 КГц
Битовая глубина : 16 бит
Метод сжатия : С потерями
Размер потока : 115 Мбайт (9%)
Выравнивание : Разделение по промежуткам
Продолжительность промежутка : 40 мс. (1,00 видеокадр)
Время предзагрузки промежутка : 500 мс.

pb.wtf



Скачать Только не сейчас через торрент https://pic1.kartinco.top/images/111/jbre3umny6.jpg Скачать, смотреть онлайн Только не сейчас бесплантно в хорошем качестве Описание: Действие картины разворачивается в 1953 году в небольшом польском городке, где находится база советских войск. Служащий в этой ... 10 10 1
Info! Золотая раздача, скачанное не засчитывается.
Торрент: Зарегистрирован [2012-08-11 13:51] · скачан: 76 раз
Статус: √ проверено
Размер: 1.28 GB
Как cкачать? Как скачать Только не сейчас через торрент | UTorrent

% Раздел Тема Автор DL S | L
Короткометражные мультфильмы [ 372 MB ] Только не сейчас [1962 СССР мультфильм короткометражка SATRip-AVC от AVP Studio] AVP Studio Скачать
1 | 0
Кино СССР [ 373 MB ] Только не сейчас [1962 СССР мультфильм короткометражка SATRip от AVP Studio] AVP Studio Скачать
1 | 0

28-11-2019 20:33  

Отключить вcю реклaмy на сайте

    Дорогой пользователь! Огромная просьба, поблагодарите релизера, оцените раздачу и оставьте свои комментарий, если Вы скачали Только не сейчас через торрент бесплатно!
    Комментировать посты могут только пользователи прошедшие не сложную регистрацию
    Показать сообщения:    

    Только не сейчас через торрент
    Скачать бесплатно Только не сейчас
    Только не сейчас скачать торрент
    Только не сейчас смотреть онлайн
    Cкачать фильм Только не сейчас бесплатно
    Только не сейчас скачать торрент в хорошем качестве
    Только не сейчас смотреть онлайн бесплатно в хорошем качестве


    Вы не можете начинать темы
    Вы не можете отвечать на сообщения
    Вы не можете редактировать свои сообщения
    Вы не можете удалять свои сообщения
    Вы не можете голосовать в опросах
    Вы не можете прикреплять файлы к сообщениям
    Вы можете скачивать файлы